<?xml version="1.0" standalone="no"?>
<!DOCTYPE svg PUBLIC "-//W3C//DTD SVG 1.1//EN" "http://www.w3.org/Graphics/SVG/1.1/DTD/svg11.dtd" >
<svg xmlns="http://www.w3.org/2000/svg">
<metadata></metadata>
<defs>
<font id="herscheyscript" horiz-adv-x="2209" >
<font-face units-per-em="2048" ascent="1536" descent="-512" />
<missing-glyph horiz-adv-x="1024" />
<glyph horiz-adv-x="2048" />
<glyph horiz-adv-x="2048" />
<glyph unicode="&#xd;" horiz-adv-x="2048" />
<glyph unicode=" "  horiz-adv-x="1024" />
<glyph unicode="&#x09;" horiz-adv-x="1024" />
<glyph unicode="&#xa0;" horiz-adv-x="1024" />
<glyph unicode="!" horiz-adv-x="512" d="M96 -776q14 46 52 79.5t85 39.5q29 4 57 -2q48 -9 83 -44.5t44 -84.5q13 -63 -21.5 -118.5t-97.5 -72.5q-72 -20 -133 21q-44 29 -63.5 80t-5.5 102zM196 -221v1468l4 10q17 27 45 33q19 5 39 -4.5t29 -28.5l6 -10v-1468l-6 -12q-20 -33 -56 -33q-37 0 -57 33zM216 -825 q2 -18 17 -29q8 -4 22 -4q15 0 23 4q16 11 16 35q0 22 -16 33q-21 10 -37 4q-6 -3 -14 -11q-13 -14 -11 -32z" />
<glyph unicode="#" horiz-adv-x="1837" d="M86 -308.5q0 37.5 34 56.5l12 6h361l51 244q55 236 55 246q0 2 -182 2l-183 2l-12 4q-34 19 -34 56.5t34 56.5l12 6h195l197 2l141 643q138 628 149 657q3 7 9 13q15 11 30 14q19 3 41 -6q33 -16 33 -54q0 -7 -135 -636q-31 -138 -67.5 -305.5t-53.5 -245t-18 -78.5v-4 h243l242 2l141 643q108 491 127.5 575.5t28.5 92.5l2 2q37 26 68 10q23 -11 30 -31q7 -12 7 -25q0 -5 -136 -636q-31 -138 -67.5 -305.5t-53.5 -245t-18 -78.5v-4h334l10 -6q34 -19 34 -56.5t-34 -56.5l-10 -4l-180 -2h-181l-53 -244q-55 -236 -55 -246q0 -2 182 -2h185 l10 -6q34 -19 34 -56.5t-34 -56.5l-10 -4l-197 -2h-197l-141 -643q-108 -492 -127.5 -577t-28.5 -93l-2 -2q-17 -14 -43 -14t-43.5 17.5t-17.5 42.5q0 9 137 636q135 627 137 629v4h-485l-141 -643q-108 -492 -127.5 -577t-28.5 -93l-2 -2q-37 -26 -68 -10q-23 11 -30 31 q-7 12 -7 25q0 5 136 636q31 138 67.5 305.5t53.5 245t18 78.5v4h-166l-166 2l-12 4q-34 19 -34 56.5zM620 -244q0 -2 243 -2h244l51 244q55 236 55 246q0 2 -243 2h-242l-53 -244q-55 -236 -55 -246z" />
<glyph unicode="$" horiz-adv-x="1796" d="M96 778q-30 242 219 387q132 76 266 107l37 10v186l2 189l4 10q17 27 45 33q19 5 39 -4.5t29 -28.5l6 -10v-357l26 5q40 5 134.5 3t119.5 -8h6v179l3 178l4 10q20 33 57 33q35 0 55 -33l6 -10v-375h4q2 -2 43 -10q292 -71 437 -289q26 -40 26 -61q0 -27 -16 -43 q-22 -19 -45 -19q-21 0 -34 8.5t-30 34.5q-118 184 -356 244q-18 6 -27 6q-2 0 -2 -483v-486l9 -2q174 -65 239 -108q94 -59 160 -154q46 -65 79.5 -148.5t45.5 -164.5q11 -70 2 -142q-9 -67 -43 -131q-50 -99 -164 -174q-129 -87 -305 -127l-21 -6l-2 -188v-187l-6 -12 q-20 -33 -55 -33q-37 0 -57 33l-4 12l-3 179v178l-26 -4q-39 -5 -136 -3.5t-120 7.5h-4v-357l-6 -12q-20 -33 -56 -33q-37 0 -57 33l-4 12l-2 187v188l-12 2q-130 27 -228 78q-157 83 -244 219q-26 37 -26 60q0 16 6 26q15 35 55 35q22 0 34.5 -9t31.5 -38q63 -101 180 -170 q83 -50 191 -72l12 -4v1075l-43 15q-106 39 -171.5 75t-117.5 87q-77 74 -128.5 173.5t-61.5 198.5zM218 827q0 -34 5 -63q28 -133 118 -236q43 -51 99.5 -86t150.5 -71l27 -11v793q-15 -4 -31 -8q-90 -24 -174 -68q-83 -43 -129 -89t-61 -103q-5 -25 -5 -58zM743 186v-1052 h10q59 -8 140 -8t128 8h8v962l-38 13q-32 8 -132 41q-22 7 -47 14.5l-40 12t-17 5.5zM743 317l47 -14l237 -76q2 0 2 475q0 474 -2 474t-34 4q-27 2 -88 2.5t-78 -0.5q-67 -3 -76 -6h-8v-859zM1154 51v-895l7 2q34 4 96 29q87 31 153 76q66 43 102.5 91t49.5 111 q11 59 0 129q-19 113 -72 205q-36 65 -84 113q-71 71 -215 125q-31 14 -37 14z" />
<glyph unicode="%" horiz-adv-x="2185" d="M94 741q-17 92 10 205.5t84 186.5q109 143 342 170q2 0 23.5 1t34.5 1q68 -1 123 -20.5t147 -72.5q81 -49 149.5 -76t149.5 -42q223 -47 440 18q156 51 355 158q46 25 65 20q23 -4 37 -18q26 -37 10 -68q-6 -12 -931 -1091q-927 -1084 -940 -1090q-12 -6 -29 -6 q-26 0 -44 17.5t-18 43.5q0 15 7 27q9 17 829 973l823 960q0 1 -22 -6q-142 -58 -268.5 -75.5t-262.5 1.5q-138 16 -245 62q-12 6 -17 6q0 -1 0.5 -4.5t1.5 -10t2 -12.5q15 -92 -11 -203t-81 -184q-28 -43 -76 -77q-71 -53 -170 -78q-154 -40 -270 -2q-46 14 -100 51 q-19 12 -45.5 38.5t-38.5 45.5q-51 67 -64 151zM215 772q5 -33 23 -74q50 -94 143 -125q31 -10 84 -10q54 0 115 15q99 25 151 77q46 43 68 109q19 45 27 103t3 102q-12 85 -69 139q-52 52 -123 68q-11 2 -45 2.5t-45 -0.5q-77 -7 -133 -31q-56 -22 -92 -53t-62 -80 q-26 -50 -38.5 -120t-6.5 -122zM1217 -569q12 106 54.5 193t108.5 143q79 66 177 83q20 5 38 11q57 10 68 10q14 2 42 1.5t44 -3.5q73 -9 133 -41q52 -28 92 -68q65 -63 92 -153q20 -65 14 -151.5t-38 -170.5q-10 -34 -45 -92q-86 -127 -258 -170q-154 -39 -273 -2 q-46 14 -98 51q-19 12 -45.5 38.5t-38.5 45.5q-43 56 -61 133q-13 62 -6 142zM1344 -674q15 -75 67 -127q105 -105 299 -53q91 23 143 70.5t78 132.5q17 47 25 112q4 56 -4 88q-13 72 -67.5 125t-131.5 70q-54 5 -88 2q-5 0 -35 -6q-24 -8 -41 -8q-101 -19 -166 -97 q-57 -71 -77 -190q-11 -59 -2 -119z" />
<glyph unicode="&#x26;" horiz-adv-x="2406" d="M118 -516q-22 114 4 229q29 117 117 228q15 19 48 52.5t52 47.5q103 86 252 160q22 11 44 21.5t60 28.5l76 36l19 8l-19 29q-57 96 -100 221q-75 227 -39 395q24 107 90 197q12 17 39 44t43 38q73 56 156 71q59 5 98 -4q122 -25 211 -137q72 -92 96 -203q15 -56 15 -127 q3 -74 -21 -149q-53 -182 -235 -324q-71 -52 -125 -82l-25 -16q0 -7 47 -68q65 -87 219 -315q50 -74 102 -147.5t84 -117.5t34 -44q1 0 12 16t25 38.5t22 37.5q44 73 79 152.5t89 228.5q58 159 96.5 246t83.5 161q38 63 75.5 96t86.5 46q12 4 47 4t51 -4q39 -10 76 -35 q70 -47 92 -131q4 -16 4 -54q0 -37 -4 -49q-10 -42 -37 -57q-10 -6 -28 -6q-27 0 -43 16q-19 19 -19 45q0 15 4 23q11 40 -8 76q-13 24 -40 39.5t-54 13.5q-26 -3 -47 -22.5t-51 -67.5q-78 -135 -152 -340q-83 -226 -125 -318q-68 -140 -145 -246l-11 -14l21 -24 q105 -128 190 -193q88 -65 183.5 -93.5t158.5 -8.5q47 17 69.5 54t10.5 75q-4 8 -4 22q0 26 19 45q17 17 43 17q16 0 28 -7q15 -10 19 -12q21 -28 24 -82q3 -66 -32.5 -124t-98.5 -89q-60 -29 -123 -32q-96 -3 -209.5 43.5t-207.5 130.5q-70 58 -134 135l-34 41l-7 -6 q-74 -95 -157 -168q-204 -180 -479 -189q-119 -3 -235 29.5t-206 95.5q-96 66 -166.5 167t-93.5 206zM241 -332q-41 -195 117 -373q131 -152 370 -180q25 -3 74 -3t74 3q237 34 412 226q17 17 52.5 58.5t39.5 47.5q1 1 -17 29q-91 120 -225 317q-24 38 -67 100t-44 64 q-30 42 -135 188l-32 45q-7 -2 -11 -6q-2 -1 -12.5 -6t-27.5 -12.5t-31 -13.5q-176 -80 -269 -140q-226 -145 -268 -344zM749 870q-9 -90 17.5 -205t80.5 -216q8 -17 21.5 -41t23.5 -40t11 -16q3 0 36.5 20.5t57.5 37.5q211 139 252 325q19 90 -4 182.5t-80 161.5 q-58 65 -119 82q-46 10 -70 4q-66 -12 -121 -67q-93 -90 -106 -228z" />
<glyph unicode="(" horiz-adv-x="1058" d="M123 109q18 407 137 694q59 146 211 401q99 164 184.5 270t190.5 193q33 30 49 33q19 3 41 -6q33 -16 33 -56q0 -20 -9 -31.5t-47 -43.5q-147 -126 -278 -330q-119 -187 -185 -320q-125 -233 -170 -495q-41 -236 -33 -495.5t62 -475.5q32 -133 97.5 -273.5t189.5 -342.5 q83 -137 157.5 -229.5t159.5 -164.5q38 -32 47 -43.5t9 -31.5q0 -15 -7 -27q-15 -35 -55 -35q-23 0 -61 31q-106 90 -191.5 195.5t-183.5 269.5q-135 227 -199.5 374.5t-99.5 313.5q-62 277 -49 625z" />
<glyph unicode=")" horiz-adv-x="1054" d="M90 -1638q0 20 9 32t46 43q150 129 279 332q110 169 184 318q125 233 170 495q41 235 33.5 495.5t-61.5 475.5q-32 133 -97.5 273.5t-189.5 342.5q-83 136 -158 229t-160 165q-46 38 -51 51q-13 37 11 67q15 15 34 19q17 3 32.5 -3.5t41.5 -27.5q106 -90 191.5 -195.5 t183.5 -269.5q135 -227 199.5 -374.5t99.5 -313.5q62 -277 49 -625q-18 -407 -137 -694q-59 -146 -211 -401q-98 -164 -183.5 -269.5t-191.5 -195.5q-38 -31 -61 -31q-26 0 -44 18t-18 44z" />
<glyph unicode="*" horiz-adv-x="1374" d="M118 -332q-12 24 2 51q8 17 13 19q10 10 219 133l213 129q-96 59 -213 129q-209 123 -219 133q-5 2 -13 19q-15 26 0 53q2 4 7 11t6 9q37 26 67 11q3 -2 31 -18.5l84 -49.5t104 -61l207 -125v260l2 262l4 10q17 27 45 33q19 5 39 -4.5t29 -28.5l6 -10v-522l209 125 q189 115 217 129q6 4 23 4q26 0 43.5 -18t17.5 -44t-14 -43q-1 -1 -27.5 -17t-82 -50t-111.5 -68l-216 -129q97 -59 216 -129q56 -34 111.5 -68t82 -50t27.5 -17q26 -37 10 -68q-11 -23 -31 -30q-29 -14 -49 -3q-28 14 -217 129l-209 125v-520l-6 -12q-20 -33 -55 -33 q-38 0 -58 33l-4 12l-2 260v260l-207 -125q-48 -28 -104 -61l-84 -49.5t-31 -18.5q-22 -11 -51 3q-20 7 -31 30z" />
<glyph unicode="+" horiz-adv-x="2174" d="M102 1q0 37 34 56l12 6h877v439l2 438l4 10q17 27 45 33q19 5 39 -4.5t29 -28.5l6 -10v-877h876l11 -6q34 -19 34 -56t-34 -56l-11 -4l-438 -2h-438v-877l-6 -12q-20 -33 -55 -33q-38 0 -58 33l-4 12l-2 438v439h-438l-439 2l-12 4q-34 19 -34 56z" />
<glyph unicode="," horiz-adv-x="577" d="M117 -510q0 38 14 70q15 35 47.5 60.5t69.5 31.5q25 4 53 0q60 -12 102.5 -67.5t55.5 -141.5q3 -20 3 -60t-3 -59q-17 -93 -72 -166.5t-135 -115.5q-41 -20 -61 -24t-39 5q-35 15 -35 55q0 44 45 60q58 23 100.5 66.5t61.5 99.5q6 12 6 20l2 6l-10 -4q-28 -6 -70 -2 q-31 6 -59.5 25t-45.5 45q-12 14 -26 49q-4 16 -4 47zM240 -506q0 -12 6 -22q11 -22 32 -25t35 16q10 13 0 31q-13 26 -26 31q-18 7 -27 0q-16 -10 -20 -31z" />
<glyph unicode="-" d="M125 2q0 20 12.5 36.5t32.5 22.5h5l937 2h936l10 -6q34 -19 34 -56t-34 -56l-10 -4h-1878l-12 4q-33 20 -33 57z" />
<glyph unicode="." horiz-adv-x="552" d="M116 -469q14 46 52 79.5t85 39.5q30 4 58 -2q48 -9 83 -44.5t44 -84.5q13 -63 -21.5 -118.5t-97.5 -72.5q-72 -20 -133 21q-44 29 -63.5 80t-6.5 102zM236 -517.5q2 -18.5 17 -29.5q8 -4 23 -4q14 0 22 4q17 11 17 35q0 22 -17 33q-20 10 -36 4q-10 -5 -15 -10 q-13 -14 -11 -32.5z" />
<glyph unicode="/" horiz-adv-x="2136" d="M91 -1616q4 10 926 1649.5t927 1645.5q13 17 35 21q20 3 41 -6q17 -7 29 -31q10 -23 0 -47q-4 -10 -926.5 -1649.5t-927.5 -1645.5q-2 -5 -18 -15q-12 -6 -29 -6t-27 6q-18 7 -30 31q-10 23 0 47z" />
<glyph unicode="0" horiz-adv-x="1806" d="M121 190q6 391 121 676q111 272 313 371q57 28 111 40t135 15l55 4q1 1 67.5 -0.5t90.5 -3.5q124 -12 205 -45q46 -15 114 -57q148 -103 232 -316q125 -313 125 -720q0 -409 -125 -721q-98 -252 -285 -346q-110 -55 -266 -72q-34 -3 -103.5 -3t-101.5 3q-133 12 -217 45 q-53 17 -113 57q-95 63 -162.5 173t-117.5 282q-81 268 -78 618zM260 -94q32 -296 131 -492q64 -132 159 -194.5t255 -79.5q100 -8 201 0q162 18 254 78q135 89 213 325q122 361 84 803q-28 328 -138 549q-64 130 -158.5 192.5t-252.5 79.5q-139 9 -144 4l-55 -4 q-72 -2 -115 -12q-173 -43 -278 -215q-110 -184 -152 -494q-36 -265 -4 -540z" />
<glyph unicode="1" horiz-adv-x="2928" d="M91 848q13 23 33 29q2 1 8 3t13 4.5t13 4.5q64 21 119 57q65 43 168 162q95 106 148 149q78 58 114 82q491 328 903 355q203 12 381 -45q150 -51 271 -144q115 -84 217 -217q192 -255 277 -627t42 -767q-31 -279 -124.5 -518t-239.5 -412q-78 -92 -172 -162 q-307 -232 -713 -182q-411 49 -903 391q-26 19 -31.5 24t-11.5 15t-6 28q0 27 16 43q22 19 45 19q15 0 24.5 -4t35.5 -23q223 -157 417 -243q429 -192 766 -107q210 54 383 221q165 166 268 423.5t128 567.5q26 310 -35 608t-195 523q-189 318 -489 420q-375 128 -877 -111 q-172 -84 -371 -223q-45 -33 -78.5 -65.5t-91.5 -98.5q-97 -108 -149 -151q-90 -72 -199 -109q-35 -12 -55 -10.5t-37 16.5q-31 31 -12 74z" />
<glyph unicode="2" horiz-adv-x="1736" d="M88 -958q-3 196 88 346q37 65 115 143q64 64 142.5 120t242.5 156q167 103 199 125q183 122 266 228q56 66 145 213q9 16 32.5 54t29.5 50q39 65 56 101t24 75q4 20 4 64q0 42 -6 71q-19 89 -66 158q-105 160 -289 217q-114 37 -236 31t-231 -53q-104 -46 -182 -133 q-95 -115 -109 -203q-2 -20 3 -82q0 -30 -17 -47q-18 -21 -45 -21q-23 0 -45 19q-12 14 -16.5 34.5t-3.5 63.5q0 44 4 62q18 104 98 210q79 101 166 158q151 102 350 117q58 4 121 0q231 -18 397 -150q24 -20 53 -49q114 -114 157 -256t5 -274q-17 -66 -82 -172 q-8 -15 -33 -57t-32 -54q-71 -119 -113 -176t-100 -115q-89 -89 -236 -188q-66 -44 -203 -127q-201 -121 -296 -199q-132 -107 -186 -223t-44 -268q18 -253 174 -412q158 -155 404 -182q25 -3 78 -3t81 3q239 30 394 182q123 126 161 309q13 73 15 131q3 53 6 62q8 24 33 35 t51 0q19 -10 31 -33q4 -10 4 -51q0 -195 -84 -361q-48 -96 -129 -180q-52 -50 -105 -86q-212 -143 -481 -137q-244 6 -436 133q-59 41 -111 90q-78 81 -127 176q-80 162 -86 355z" />
<glyph unicode="3" horiz-adv-x="1796" d="M96 -510q0 36 33 53q10 6 29 6q27 0 43 -16q12 -12 20 -39q40 -129 133 -225q60 -58 144 -88.5t221 -44.5q111 -8 213 0q203 21 334 106q113 75 181 195t83 270q13 134 -14 275q-17 84 -50 142t-92 109q-119 105 -196 113q-28 5 -121 -10q-77 -11 -125.5 -6.5t-93.5 28.5 q-193 103 -187 234q6 82 90 160q41 39 101.5 80.5t199.5 125.5q155 92 223 139.5t115 96.5q38 38 70 92q102 174 125 328q3 25 3 70t-3 67q-20 116 -94 205q-86 101 -237 157t-324.5 54t-325.5 -62q-141 -55 -223 -149q-93 -113 -99 -254q-6 -186 123 -406 q22 -37 25.5 -45.5t3.5 -21.5q0 -24 -16 -43q-22 -19 -46 -19q-23 0 -37 13t-36 53q-113 193 -137 373q-8 78 0 157q21 141 112 258q15 19 43.5 48t46.5 42q196 157 498 179q170 13 338 -31q183 -48 307 -148q18 -13 46.5 -42t43.5 -48q92 -119 113 -258q8 -79 0 -157 q-27 -188 -144 -385q-45 -75 -96 -123q-54 -53 -126.5 -103.5t-225.5 -142.5q-156 -95 -207 -131q-136 -95 -123 -150q9 -40 113 -98q22 -14 34.5 -16.5t41.5 -1.5q41 0 80 6q76 12 122 12q69 -3 136 -37q53 -26 119.5 -80t105.5 -102q97 -124 121 -326q47 -388 -160 -645 q-39 -52 -109 -108q-170 -133 -419 -160q-205 -23 -400 18q-133 26 -226.5 90t-162.5 177q-29 45 -53.5 105.5t-24.5 84.5z" />
<glyph unicode="4" horiz-adv-x="2007" d="M147 27q-77 274 5 551t298 473q103 95 221 153q178 94 394 109q22 1 80.5 0.5t82.5 -2.5q121 -17 140 -25q17 -7 30 -29l7 -10v-878q0 -877 2 -877l20 8q224 98 359 307q23 32 34.5 41t32.5 9q17 0 29 -7q33 -16 33 -55q0 -20 -27 -61q-110 -166 -270 -271 q-73 -50 -189 -98l-22 -8l-2 -148v-147l-7 -12q-20 -33 -55 -33q-37 0 -57 33l-4 12l-2 129q0 131 -2 131q-1 0 -33 -4q-63 -12 -160 -12q-75 0 -98 2q-174 20 -324 92q-53 26 -108 63q-168 107 -275 275q-88 135 -133 289zM236 297.5q0 -60.5 3 -86.5q23 -217 146 -404 q61 -99 147 -172q199 -172 471 -202q23 -3 82 -3t82 3q19 2 94 14q2 0 7 1t6 1l6 2v1727l-17 2q-4 1 -11 2t-17 2t-15 2q-24 2 -76.5 2.5t-66.5 -0.5q-21 0 -35 -2q-126 -9 -252 -64q-209 -86 -356 -268q-165 -210 -195 -467q-3 -29 -3 -89.5z" />
<glyph unicode="5" horiz-adv-x="2095" d="M88 690q3 80 29 160q74 230 326 356q140 72 358 111q162 30 315 35q2 0 13.5 0.5t28.5 1t32 0.5q227 0 451 -45q76 -15 96 -24t31 -32q10 -22 1 -46t-32 -36q-20 -8 -64 3q-162 39 -348 51q-35 3 -126 3t-128 -3q-268 -19 -454 -80q-210 -69 -316 -209 q-102 -133 -86 -303q7 -76 39.5 -144t79.5 -108q97 -81 201 -29q29 14 61 51q68 79 131 111q60 30 138.5 45t211.5 21q305 14 516 -93q96 -48 170 -122q78 -78 129 -177q68 -135 84 -286q4 -41 4 -106.5t-4 -106.5q-16 -149 -84 -285q-51 -105 -135 -186 q-197 -188 -532 -209q-180 -10 -338 24q-133 26 -226.5 90t-162.5 177q-29 45 -53.5 105.5t-24.5 84.5q0 36 33 53q10 6 28 6q27 0 43 -16q13 -13 21 -39q23 -83 78 -158q68 -95 162 -140t258 -60q111 -8 213 0q202 21 333 106q204 136 254 406q13 69 13 147q0 102 -23 197 q-38 154 -135.5 262.5t-243.5 159.5q-170 57 -422 37q-147 -8 -225 -37q-55 -20 -108 -82q-21 -27 -41 -47q-61 -55 -150 -74q-59 -9 -111 2q-77 17 -141.5 71.5t-105.5 137.5q-65 127 -62 268z" />
<glyph unicode="6" horiz-adv-x="1701" d="M132 -168q-31 536 75 905q93 326 273 449q140 96 366 108q22 2 69.5 2t72.5 -2q133 -8 221 -35t151 -81q51 -44 84.5 -106t40.5 -128q4 -26 1 -39.5t-17 -27.5q-17 -17 -43 -17t-43 17q-16 16 -21 51q-4 29 -10 45q-41 121 -180 166q-89 30 -258 30q-80 0 -96 -2 q-159 -15 -254 -75.5t-160 -186.5q-64 -126 -105 -319t-47 -400q0 -38 3 -38l2 2q1 1 3 4t5.5 8t5.5 8q26 39 67 80q117 123 287 184q201 69 407.5 19.5t354.5 -203.5q166 -172 201 -420q8 -87 0 -170q-26 -200 -143 -356t-300 -232q-128 -54 -266.5 -56.5t-269.5 46.5 q-34 11 -127 59q-179 110 -258 279q-75 150 -92 432zM263 -184q-2 -20 0 -60q17 -191 73 -305q77 -157 256 -246q217 -111 461 -34q149 50 256.5 168t141.5 270q14 62 14 135t-14 135q-28 125 -105 227.5t-192 165.5q-104 61 -242 74q-88 8 -177.5 -11.5t-162.5 -62.5 q-170 -93 -252 -262q-48 -98 -57 -194z" />
<glyph unicode="7" horiz-adv-x="1730" d="M86 1231q0 20 12.5 36.5t32.5 22.5h13h34.5t54.5 0.5t73.5 0.5h88.5t103.5 0.5t114 0.5h124h131.5h731l11 -6q39 -19 32 -67q-1 -9 -516.5 -1091.5t-521.5 -1090.5q-2 -3 -18 -14q-12 -6 -29 -6q-26 0 -43.5 17.5t-17.5 43.5q0 17 8 31q19 46 493 1036l486 1022h-676 l-676 2l-12 5q-33 20 -33 57z" />
<glyph unicode="8" horiz-adv-x="1816" d="M118 -465q-25 148 16.5 283t155.5 280q20 24 55 60t57 55q88 69 205 106q32 12 33 13l-9 3q-13 4 -22 7q-105 33 -159 59q-124 60 -183 191q-34 78 -42 172t12 182q22 100 67 164q100 152 281 182q18 2 131 2q54 0 74 2q207 10 393 -12q158 -21 243 -84 q19 -12 44.5 -37.5t37.5 -44.5q67 -92 82 -229q3 -25 3 -75t-3 -75q-27 -187 -141 -286q-76 -65 -250 -115l-20 -6q10 -4 22 -8q115 -35 203 -103t168 -182q112 -161 133 -318q3 -26 3 -76t-3 -73q-22 -180 -127 -320q-56 -74 -119 -120.5t-149 -75.5q-132 -46 -371 -53 q-284 -3 -453 59q-37 14 -100 49q-99 61 -172.5 177.5t-95.5 246.5zM247.5 -478.5q31.5 -130.5 122.5 -234.5q55 -61 133 -95.5t201 -51.5q95 -10 204 -10q110 0 207 10q122 17 199.5 51.5t132.5 95.5q102 117 129 262q31 180 -55 336q-97 176 -226 260q-49 32 -110 52.5 t-191 50.5q-76 16 -77 16q-7 0 -97 -18q-155 -36 -219 -62q-141 -56 -252 -215q-71 -102 -98 -192q-35 -125 -3.5 -255.5zM357 725q29 -152 148 -213q86 -44 369 -109l36 -10l37 10q90 19 199 52q123 35 164 57q63 31 98.5 81t50.5 128q20 98 0 194q-19 93 -65 147t-129 79 q-77 22 -258 30q-108 4 -209 0q-20 -2 -82 -2q-103 0 -121 -2q-94 -20 -156 -86t-82 -170q-19 -84 0 -186z" />
<glyph unicode="9" horiz-adv-x="1681" d="M96 563q0 55 3 86q18 126 74 242q85 170 242.5 276t349.5 123q142 10 264 -28q116 -32 221 -107q141 -99 213 -246q40 -82 61.5 -182.5t30.5 -249.5q31 -538 -75 -907q-93 -326 -273 -449q-105 -73 -262 -98q-100 -15 -224.5 -11t-207.5 27q-194 50 -272 199 q-33 65 -39 125q-8 44 16 68q16 16 43 16t43 -16t21 -52q4 -29 10 -45q41 -120 180 -165q92 -31 258 -31q80 0 96 2q159 15 254 75.5t160 186.5t105.5 319t46.5 402q0 36 -2 37l-2 -2q-1 -1 -3.5 -4.5t-6 -8.5t-5.5 -8q-23 -35 -65 -80q-121 -124 -289 -184 q-201 -69 -407.5 -19.5t-354.5 203.5q-166 172 -201 422q-3 29 -3 84zM222 563q0 -51 4 -82q20 -140 97 -252q54 -83 131.5 -143.5t169.5 -91.5q199 -68 401 0q193 67 305 239q64 97 86 207q12 63 8 111q-15 168 -59 274t-131 183q-140 128 -332 153q-64 9 -129 4 q-221 -21 -377 -174q-141 -144 -170 -346q-4 -31 -4 -82z" />
<glyph unicode=":" horiz-adv-x="575" d="M130 250q14 46 52.5 79.5t85.5 39.5q29 4 57 -2q48 -9 83 -44.5t44 -84.5q13 -63 -21.5 -118.5t-97.5 -72.5q-72 -20 -133 21q-44 29 -63.5 80t-6.5 102zM130 -469q14 46 52.5 79.5t85.5 39.5q29 4 57 -2q48 -9 83 -44.5t44 -84.5q13 -63 -21.5 -118.5t-97.5 -72.5 q-72 -20 -133 21q-44 29 -63.5 80t-6.5 102zM251 201q2 -18 17 -29q8 -4 22 -4q15 0 23 4q16 11 16 35q0 22 -16 33q-21 10 -37 4q-6 -3 -14 -11q-13 -14 -11 -32zM251 -517.5q2 -18.5 17 -29.5q8 -4 22 -4q15 0 23 4q16 11 16 35q0 22 -16 33q-21 10 -37 4q-8 -4 -14 -10 q-13 -14 -11 -32.5z" />
<glyph unicode=";" horiz-adv-x="589" d="M128 -510q0 36 15 70q15 35 47 60.5t69 31.5q25 4 54 0q60 -12 102 -67.5t55 -141.5q3 -20 3 -60t-3 -59q-17 -93 -71.5 -166.5t-134.5 -115.5q-41 -20 -61.5 -24t-39.5 5q-35 15 -35 55q0 44 45 60q58 23 100.5 66.5t61.5 99.5q6 12 6 20l2 6l-10 -4q-28 -6 -69 -2 q-31 6 -59.5 25t-45.5 45q-12 14 -26 49q-5 20 -5 47zM133 250q14 46 52 79.5t85 39.5q29 4 57 -2q48 -9 83 -44.5t44 -84.5q13 -63 -21.5 -118.5t-97.5 -72.5q-72 -20 -133 21q-44 29 -63.5 80t-5.5 102zM251 -506q0 -12 6 -22q11 -22 32.5 -25t35.5 16q10 13 0 31 q-13 25 -27 31q-17 7 -26 0q-18 -11 -21 -31zM253 201q2 -18 17 -29q8 -4 22 -4q15 0 23 4q16 11 16 35q0 22 -16 33q-21 10 -37 4q-6 -3 -14 -11q-13 -14 -11 -32z" />
<glyph unicode="&#x3c;" horiz-adv-x="1974" d="M115 0q0 96 10 172q42 285 215 514q94 128 227 225q146 112 328 172q141 47 303 58q19 1 81 0.5t85 -2.5q176 -20 342 -90q41 -19 93 -46t61 -36q1 -1 10 -19q19 -40 -12 -71q-20 -17 -48 -17q-6 0 -10.5 1t-7 2.5t-13.5 7t-20 10.5q-64 38 -102 53q-357 154 -727 29 q-244 -82 -421 -270t-239 -431q-30 -123 -30 -262q0 -140 30 -260q67 -264 266.5 -460t469.5 -265q333 -87 651 51q38 15 102 53q8 4 17 9t12 6.5t7 3t7 2t8 0.5q28 0 48 -17q31 -31 12 -71q-9 -18 -10 -19q-9 -9 -61 -36t-93 -46q-171 -71 -344 -90q-29 -3 -100.5 -3 t-100.5 3q-216 20 -411 115q-171 85 -308 219q-83 86 -135 166q-142 205 -182 467q-10 76 -10 172z" />
<glyph unicode="=" horiz-adv-x="2222" d="M131 -307q0 20 12.5 36.5t32.5 22.5h5q451 2 937 2h936l10 -6q34 -19 34 -56.5t-34 -56.5l-10 -4h-1878l-12 4q-33 20 -33 58zM131 309q0 20 12.5 37t32.5 23h5l937 2h936l10 -6q34 -19 34 -56.5t-34 -56.5l-10 -4h-1878l-12 4q-33 20 -33 57z" />
<glyph unicode="&#x3e;" horiz-adv-x="1966" d="M97 -948q-19 40 12 71q20 17 47 17q5 0 8 -0.5t7.5 -2t7.5 -3t12 -6.5t17 -9q65 -38 104 -53q172 -75 357.5 -82.5t367.5 53.5q245 82 422 270.5t238 432.5q30 120 30 260q0 139 -30 262q-68 263 -267 458.5t-469 264.5q-163 43 -329 30t-320 -81q-39 -15 -104 -53 q-8 -4 -17 -9t-12 -6.5t-7.5 -3t-7.5 -2t-8 -0.5q-27 0 -47 17q-31 31 -12 71q9 18 10 19q9 9 62 36.5t94 45.5q185 78 389 92q15 1 77.5 0.5t80.5 -2.5q213 -21 409 -115q168 -85 305 -219q85 -88 136 -164q143 -208 182 -469q10 -76 10 -172t-10 -172q-40 -262 -182 -467 q-50 -77 -136 -166q-137 -134 -305 -219q-198 -95 -411 -115q-31 -3 -102.5 -3t-100.5 3q-174 19 -342 90q-41 18 -94 45.5t-62 36.5q-1 1 -10 19z" />
<glyph unicode="?" horiz-adv-x="1554" d="M86 772q0 57 19 115q43 127 162 246q174 165 448 186q13 1 66 0.5t67 -2.5q147 -18 266 -80q86 -43 160 -115q110 -113 152 -241q25 -71 28 -148q6 -173 -108 -336q-84 -120 -186 -172q-27 -13 -146 -55q-101 -34 -139 -55q-77 -49 -94 -119q-11 -48 0 -92q14 -45 30 -64 q17 -25 17 -45q0 -16 -6 -26q-15 -35 -56 -35q-16 0 -28 6q-11 5 -27 27q-42 52 -57 127q-17 96 23 183.5t126 139.5q50 31 174 74q93 31 123 45q67 33 131 117q143 192 76 393q-22 62 -65.5 121.5t-100.5 105.5q-81 66 -195 98t-231 23q-243 -18 -387 -178 q-99 -111 -117 -211q-2 -26 2 -82q0 -31 -16 -47q-18 -21 -45 -21q-23 0 -45 19q-23 26 -21 98zM607 -776q14 46 52 79.5t85 39.5q29 4 57 -2q48 -9 83 -44.5t44 -84.5q13 -63 -21.5 -118.5t-97.5 -72.5q-72 -20 -133 21q-44 29 -63.5 80t-5.5 102zM727 -825q2 -18 17 -29 q8 -4 22 -4q15 0 23 4q16 11 16 35q0 22 -16 33q-21 10 -37 4q-6 -3 -14 -11q-13 -14 -11 -32z" />
<glyph unicode="@" horiz-adv-x="2521" d="M115 152.5q0 61.5 3 95.5q11 87 34 166.5t72 197.5q62 149 111.5 228t122.5 149q59 57 128 99.5t181 89.5q148 63 242 90.5t190 34.5q56 3 162 -3q93 -12 180 -38.5t221 -83.5q114 -52 162 -78q84 -48 164 -125q57 -58 97.5 -121.5t84.5 -163.5q67 -148 95.5 -233 t39.5 -164q3 -31 3 -88t-3 -86q-20 -153 -86 -297q-62 -136 -133 -207q-43 -43 -80 -61q-77 -42 -174 -39q-96 3 -200 30q-97 29 -148 95l-12 16l-6 -8q-39 -39 -95 -66q-99 -53 -231 -67q-22 -3 -77 -3t-77 3q-176 21 -282 96q-18 12 -42.5 36t-37.5 42q-73 99 -94 256 q-9 99 2 202q15 140 40.5 229.5t69.5 158.5q59 86 163.5 155t213.5 92q64 15 139 15q58 2 127 -11q162 -25 261 -108l16 -12v32q2 33 8 45q7 19 31 31q23 12 51 -2q16 -8 18 -12l7 -6l6 6q15 18 45 18q23 0 39.5 -13.5t21.5 -35.5q3 -17 -10 -158t-29 -272 q-18 -151 -69 -446q-6 -31 -6 -70q0 -37 4 -51q13 -52 55 -74q9 -7 41 -12q81 -12 130.5 1t94.5 58q67 67 129 219q59 152 56 301q-3 82 -29.5 167.5t-99.5 250.5q-39 87 -74 142t-84 104q-53 52 -115.5 90t-169.5 84q-128 54 -210 79t-161 34q-26 3 -80.5 3t-82.5 -3 q-138 -16 -361 -113q-116 -50 -184.5 -93.5t-122.5 -103.5q-48 -53 -82.5 -114t-87.5 -183q-82 -205 -98 -338q-3 -23 -3 -78t3 -77q9 -87 39 -181t94 -237q86 -194 223 -299q78 -56 215 -115q131 -56 212 -80.5t163 -33.5q26 -3 80 -3t82 3q99 13 196 49q120 39 250 98 q112 54 170 127q5 5 11 12t10 11.5t6 5.5q26 26 67 8q23 -12 31 -35.5t-4 -46.5q-10 -22 -44 -58t-67 -63q-46 -33 -94 -57.5t-147 -63.5q-107 -43 -162 -61q-152 -52 -293 -55t-291 43q-91 27 -220 83t-191 95q-135 87 -220 207q-63 90 -141 282q-81 192 -100 348 q-3 32 -3 93.5zM853 90q-15 -210 106 -362q16 -20 44.5 -48.5t35.5 -31.5q38 -8 76 -10q97 -9 197 16q161 40 219 156q17 36 24 71q5 19 15 62q51 202 78 460l4 56l-8 18q-39 95 -140 144q-78 41 -196 51q-81 7 -150 -8q-22 -5 -37 -15q-51 -34 -82 -65q-102 -105 -147 -271 q-33 -125 -39 -223z" />
<glyph unicode="A" horiz-adv-x="4759" d="M83 -932q-1 7 -1 13q0 12 4 20q8 18 18 25.5t41 19.5q122 46 220.5 126t228.5 239l23 28l-7 8q-11 13 -59 91q-54 103 -72 198q-4 20 -4 72q0 47 4 67q30 122 138 179q60 28 135 28q70 0 147 -28q35 -10 107 -50q16 -10 18 -8q7 9 56.5 88.5t74.5 124.5q118 207 191 416 q21 58 37.5 105t23.5 67t14 39q78 194 185 307q46 48 174 157t225 183q673 516 1215 543q30 2 60 2t60 -2q349 -18 621 -248q26 -22 73.5 -70t75.5 -79q213 -258 347 -652q153 -470 174 -1052q2 -80 2 -159.5t-2 -158.5q-18 -520 -131 -954q-110 -433 -289 -739.5 t-408 -454.5q-143 -92 -291 -119q-64 -10 -135 -10q-82 0 -139 10q-141 24 -289 98q-185 91 -389 273q-80 69 -190 188q-336 361 -672 924l-41 69h-8q-12 4 -47 4q-300 28 -553 179q-176 105 -318 241l-31 27l-6 -8q-2 -2 -6.5 -7.5t-12 -14.5t-13.5 -15 q-121 -147 -229.5 -232t-237.5 -135q-37 -14 -56 -14h-6q-23 4 -37 18q-10 13 -13 33zM612 -18q-14 -31 -14 -72.5t14 -93.5q23 -84 82 -172q2 -2 4 0q25 32 54 71q51 67 123 167t75 108q-6 6 -18 12q-65 38 -129 51q-33 5 -58 5q-11 0 -20 -1q-76 -9 -113 -75zM778 -457 l6 -6q12 -14 97 -88q196 -161 360 -233q146 -64 305 -86q32 -4 37 -4q6 -3 6 0q-2 4 -4 10q-9 24 -35 123q-20 75 -43 133q-41 90 -129 198q-130 154 -299 304l-26 22q-13 -17 -25 -35q-117 -166 -231 -313zM1124 20q13 -12 29 -26q79 -68 172.5 -162t149.5 -162 q84 -100 137 -207q26 -54 65 -194q9 -42 23 -80q6 -20 16 -44.5t13 -27.5q2 -2 48 -0.5t79 4.5q63 7 104 17q11 2 21 2q32 0 51 -19q21 -23 16.5 -52.5t-31.5 -43.5q-27 -17 -168 -29q-7 -1 -16.5 -1.5t-14.5 -1t-7 -1.5h-9l39 -63q261 -424 492 -698q354 -428 678 -584 q191 -94 365 -94q178 0 339 98q283 171 481 608q127 274 206.5 625.5t99.5 732.5q6 128 6 251q0 297 -37 566q-57 426 -188.5 752.5t-327.5 527.5q-247 253 -578 283q-51 5 -101 5q-89 0 -177 -15q-561 -92 -1268 -707q-94 -82 -130.5 -119t-64.5 -78q-40 -60 -70 -128 t-83 -216q-47 -131 -64 -174q-87 -223 -264 -495z" />
<glyph unicode="B" horiz-adv-x="2195" d="M98 -692q0 56 23 182q3 16 14.5 77.5t16.5 88.5q44 235 67 336q50 197 124.5 364.5t191.5 341.5q157 240 288 344q51 41 106.5 71t162.5 75q138 57 231 83t184 34q31 2 62 2t61 -2q219 -19 332 -129q63 -60 98.5 -148.5t40.5 -193.5v-12q0 -126 -59 -244 q-48 -91 -123 -166q-57 -57 -124 -94t-202 -87l-47 -16l31 -16q81 -40 147 -109q105 -108 156 -262q27 -95 27 -188q0 -114 -41 -226q-44 -118 -129 -210t-199 -146q-90 -41 -192 -57q-26 -3 -82 -3t-84 3q-305 44 -404 243l-6 11q-17 -15 -35 -33q-75 -76 -147 -121 q-101 -67 -201 -88q-28 -4 -52 -4q-29 0 -52 6q-45 11 -76 35q-51 39 -80 106.5t-29 151.5zM225 -690q0 -45 4 -68q24 -102 99 -108h8q51 0 127 37q134 69 268 231q93 112 185 266t145 285q66 167 168 586q45 186 47 239v16q0 121 -88 171q-41 20 -41 59q0 19 6 29 q16 32 55 32q17 0 31 -6q77 -38 125 -125q37 -71 36 -163q0 -51 -11 -109q-18 -101 -84 -363l-15 -51h8q26 0 256 82q117 42 174.5 73.5t102.5 76.5q112 112 137 237q8 43 8 85q0 79 -28 155q-50 124 -170 168q-74 29 -156 35q-22 2 -45 2q-127 0 -283 -52 q-100 -31 -243 -96q-95 -43 -161.5 -98.5t-148.5 -161.5q-218 -279 -325 -569q-42 -114 -71.5 -233.5t-70.5 -340.5q-6 -32 -16.5 -92t-13.5 -74q-19 -109 -19 -155zM864 -633l6 -18q18 -78 86 -133q81 -68 232 -90q25 -3 72 -3t69 3q135 18 242 96q167 126 205 338 q4 29 4 80q0 57 -13 116q-22 106 -92 199q-85 115 -215 158q-65 22 -147 28q-14 2 -41 2h-17l-8 -34q-30 -101 -57 -170q-47 -125 -127 -268.5t-170 -264.5z" />
<glyph unicode="C" horiz-adv-x="1892" d="M117 -206q0 88 3 122q20 273 106 500q47 117 132.5 260t189.5 280q89 118 170 185q141 113 391 149q81 12 100 13q34 2 66 2t63 -2q204 -15 324 -129q93 -87 121 -228q14 -62 15 -125q0 -93 -32 -188q-6 -21 -24.5 -58.5t-32.5 -56.5q-12 -18 -37 -44t-43 -38 q-103 -73 -254 -98q-36 -6 -72 -6q-29 0 -57 4q-72 13 -124 57t-72 109q-9 29 -9 64v6q1 38 13 67q12 24 30 31q10 6 27 6t27 -6q18 -7 30 -31q9 -22 0 -47q-9 -35 2 -60q9 -25 35 -47q14 -11 47 -22q16 -4 54 -4q50 0 118 18q80 23 128.5 59t76.5 93q31 58 39 134 q3 27 4 54q0 48 -10 94q-23 117 -97 181.5t-206 83.5q-36 5 -77 5q-66 0 -148 -12q-133 -19 -222 -57q-92 -38 -174 -123q-64 -67 -161 -205q-131 -191 -211 -360q-97 -216 -121 -500q-3 -41 -3 -124.5t3 -121.5q14 -201 63 -301q42 -80 121 -145q96 -77 186 -92 q36 -8 82 -8q59 0 134 14q134 24 221 72q66 38 125 94q115 118 182 295q9 28 35 41q23 11 49 0q20 -9 30.5 -28.5t6.5 -39.5q-9 -41 -54 -125q-62 -130 -163 -231q-45 -45 -107 -88q-127 -83 -307 -113q-82 -14 -154 -14q-59 0 -88 4q-78 15 -143 49q-58 29 -115 75t-94 93 q-60 75 -91.5 177.5t-43.5 264.5q-3 34 -3 122z" />
<glyph unicode="D" horiz-adv-x="2580" d="M86 -682q11 98 77 168q34 34 76 53q36 19 82 27q18 3 38 3q44 -1 99 -13q80 -18 156 -54q81 -43 147 -106l33 -31q41 56 51 72q46 74 102 217.5t85 263.5q29 115 67 393q25 180 48 293.5t61 241.5q35 125 65 194t68 115q24 35 72 68q66 49 145 63q40 8 47 10q53 14 92 19 q4 0 21.5 1t27.5 1h9q123 1 249 -53q132 -56 220 -148q66 -69 108 -174q61 -157 61 -403q0 -91 -8 -193q-18 -260 -82 -485q-10 -30 -10 -37q1 0 29.5 -14t62 -31t43.5 -21q27 -10 35 -18q9 -9 15 -21q6 -10 6 -26q0 -17 -6 -27q-15 -35 -56 -35q-18 0 -110 45 q-15 7 -23.5 11.5t-18 8.5t-14 6t-4.5 1q-6 -15 -14 -31q-61 -157 -152 -290.5t-188 -210.5q-105 -86 -260 -129q-84 -22 -172 -31q-37 -3 -115.5 -3t-118.5 3q-200 19 -315 78q-63 34 -115 80l-14 14l-18 -14q-103 -83 -215 -129q-105 -44 -192 -44h-11q-153 6 -230 138 q-38 70 -38 147q0 18 2 37zM208 -725q3 -55 33 -94t78 -53q22 -6 46.5 -6t53.5 6q96 21 197 84q49 31 80 59l8 6l-29 29q-72 72 -178 108q-66 24 -102 27q-14 2 -27 2q-51 0 -92 -25q-32 -23 -50.5 -62t-17.5 -81zM878 -729l12 -12q23 -23 58 -45q94 -58 293 -78 q40 -3 110 -3t107 3q150 15 253 64t187 143q153 172 240 411l4 13l-17 10q-138 77 -256 176q-151 126 -280 297q-195 263 -252 549l-4 28q-1 1 -10.5 -34t-21.5 -83.5t-19 -80.5q-28 -120 -60 -348q-40 -283 -67 -387q-26 -107 -73 -235.5t-93 -219.5q-45 -86 -95 -146z M1449 934q0 -53 11 -107q63 -318 313 -604q132 -150 287 -258q25 -18 71.5 -47t49.5 -29q2 3 2 5l12 49q51 193 67 415q6 89 6 168q0 119 -14 215q-19 127 -61 205.5t-125 138.5q-115 81 -252 103q-16 2 -52 2q-12 0 -21 1q-18 0 -25 -1q-17 0 -25 -2q-53 -6 -108 -35 q-110 -60 -131 -164q-5 -20 -5 -55z" />
<glyph unicode="E" horiz-adv-x="1918" d="M130 -279q21 154 100 275q51 74 125 137q144 126 271 141l22 2l-14 15q-36 33 -94 129q-87 143 -101 268q-4 37 -4 73q0 44 6 87q12 101 43 178q19 48 52 96q34 50 84 84q66 44 150 63t243 27q25 1 79 1q26 -1 60 -1q102 0 139 -2q122 -8 187.5 -20.5t122.5 -40.5 q47 -23 90 -66q41 -41 67 -94q44 -83 62 -199q6 -35 6 -68q0 -27 -4 -54q-15 -74 -64.5 -128t-124.5 -79q-40 -13 -92 -13q-55 0 -96 15q-44 11 -86 43q-67 52 -88 129q-5 19 -5 50t5 48q6 25 14.5 37t24.5 20q28 14 51 3q24 -12 31 -31q12 -22 2 -49q-2 -8 -2 -29t6 -33 q18 -41 63 -61q41 -17 82 -17q27 0 45 5q55 17 82 51q26 32 30 76q1 7 0 14q0 41 -16 104q-28 118 -82 172.5t-161 73.5q-103 21 -303 21h-10q-193 0 -295 -19q-126 -22 -185 -91t-82 -224q-4 -32 -4 -80t4 -76q16 -92 78 -197q45 -73 66.5 -97t48.5 -30q14 -2 98 -2 q88 0 100 -2q105 -12 132 -96q3 -12 3 -41.5t-3 -42.5q-15 -55 -59 -80q-33 -18 -78 -18q-16 0 -33 2q-38 7 -148 41q-19 6 -40 13t-34.5 11t-15.5 5q-11 2 -22 2q-38 0 -80 -19q-77 -28 -177 -125q-63 -66 -98 -137q-34 -70 -49 -160q-3 -22 -3 -67.5t3 -65.5 q18 -125 84 -225q71 -108 166.5 -155t275.5 -62q34 -3 102.5 -3t100.5 3q168 17 280.5 76t198.5 174q71 93 111 200q17 39 27 49q17 17 43 17q18 0 28 -6q27 -15 33 -45v-6q0 -19 -16 -62q-75 -188 -209 -319q-193 -184 -527 -205q-40 -2 -80 -2l-256 24q-190 39 -309 158 q-72 75 -118.5 172t-59.5 201q-4 38 -4 78t4 81zM841 231l24 -8q51 -17 82 -20q19 0 19 4q2 2 2 12q0 6 -1.5 7t-7.5 3q-6 3 -46 3h-24q-22 0 -34 -1h-14z" />
<glyph unicode="F" horiz-adv-x="2398" d="M133 -416q16 50 43 84q51 65 120 88q46 15 100 16q42 0 87 -10q122 -22 237 -100q34 -22 45 -36t11 -36q0 -40 -35 -55q-10 -6 -27 -6q-20 0 -49 20q-87 62 -190 89q-41 10 -75 10q-72 0 -114 -43q-24 -24 -33 -60q-6 -20 -6 -45.5t6 -56.5q28 -141 89 -209.5t180 -93.5 q50 -10 96 -10q54 0 102 14q90 26 191 108q103 83 177 190.5t140 268.5q33 74 97 254q59 172 59 178h-191l-188 2l-12 5q-34 19 -34 56t34 56l12 6h420q0 1 2 8t6.5 21t7.5 27q14 41 99 327q24 80 53.5 183t48.5 173.5t18 71.5q-2 0 -39 11q-7 2 -45.5 12.5t-58.5 17.5 q-109 31 -169.5 42t-135.5 14h-25q-80 0 -202 -15q-126 -15 -195 -57q-56 -34 -88 -83q-29 -45 -29 -94v-9q6 -78 70 -142q64 -66 158 -94q58 -17 118 -16q37 0 76 6q32 6 39 4q22 -4 37 -19q20 -25 14 -54.5t-33 -43.5q-16 -7 -62 -13q-39 -5 -73 -5h-12 q-105 5 -196.5 43.5t-157.5 107.5q-79 82 -99 178q-4 27 -4 53q0 31 6 60q8 37 31 82q81 162 316 209q91 18 204 24q34 2 72 1q56 0 117 -3q109 -13 272 -61q114 -34 182 -47q79 -16 150 -16q174 0 299 96q33 22 53 22q26 0 44 -17.5t18 -43.5q0 -21 -13.5 -37t-52.5 -43 q-116 -78 -270 -98q-22 -3 -80 -3t-84 3q-28 4 -29 4q-6 -25 -14 -56q-80 -291 -197 -673q-3 -13 -7.5 -27.5t-6.5 -22t-2 -8.5h405l11 -6q34 -19 34 -56t-34 -56l-11 -5l-223 -2h-223l-18 -57q-46 -143 -121 -344q-69 -179 -136 -294t-157 -208q-121 -121 -242 -180 q-80 -39 -147 -49q-29 -5 -78.5 -5t-81.5 5q-95 13 -178 55q-152 79 -209 283q-24 84 -24 153q0 44 10 82z" />
<glyph unicode="G" horiz-adv-x="2400" d="M89 -895q7 14 14 21q2 2 43 20q142 59 254 149l25 19l-9 10q-39 52 -57 88q-37 62 -51 103q-34 86 -34 176q0 46 9 94q10 52 37 65q12 7 29 7q23 0 45 -19q13 -13 15.5 -29.5t-5.5 -50.5q-4 -23 -4 -65q0 -45 4 -68q7 -28 14 -49q12 -40 54 -108q40 -66 45 -66q4 0 82 88 q121 144 229 305q148 226 219 436q12 35 13 38t-1 7q-5 0 -35 16t-42 25q-145 93 -187 312q-14 67 -14 147q0 113 39 215q19 47 58 114.5t69 104.5q57 71 135 86q16 4 37 4q14 0 30 -2q62 -11 111 -54.5t74 -110.5q23 -58 23 -136q0 -62 -15 -137q-15 -81 -56.5 -247.5 t-66.5 -247.5q0 -5 25 -7q56 -8 117 -8q130 0 282 35q180 39 258 117q20 20 28.5 38t22.5 66q15 56 27.5 82.5t34.5 48.5q26 29 70 47q39 15 73 15h12q27 -2 56 -17q71 -40 86 -139q3 -19 3 -62.5t-3 -68.5q-28 -208 -164 -434q-20 -35 -23 -41q-32 -68 -43 -217 q-15 -179 -37 -252q-25 -87 -86.5 -184.5t-138.5 -171.5q-86 -83 -193 -130t-259 -67q-105 -15 -208 -15q-142 0 -280 29q-213 42 -352 172l-21 19l-12 -8q-92 -74 -160 -113q-93 -50 -141 -70q-31 -12 -49 -12q-35 0 -52 29q-10 15 -10 31q0 14 7 28zM599 -694l12 -13 q51 -48 115 -81q129 -68 342 -83q53 -4 104 -4q155 0 293 35q89 22 153 56.5t123 93.5q88 88 146 201q32 59 45 116t22 174q9 111 20 168t34 109q5 15 47 92q61 102 98 216.5t37 197.5q0 28 -6.5 55t-14.5 33q-2 0 -6 1t-6 1q-6 0 -23.5 -6.5t-23.5 -10.5q-19 -14 -37 -86 q-18 -60 -33.5 -91t-44.5 -60q-47 -51 -132 -92.5t-185 -63.5q-167 -39 -320 -39h-22q-55 2 -125 11l-29 6v-6q-2 -5 -10 -27t-18.5 -51t-16.5 -45q-106 -265 -330 -562q-102 -134 -188 -223zM908 702q9 -58 29 -120q34 -108 108 -158q45 -27 52 -27h1q10 6 99 377 q33 148 36 207v15q0 60 -21 105q-24 51 -67 68q-17 6 -30 6q-12 0 -21 -4q-23 -8 -45.5 -34t-60.5 -90q-64 -108 -80 -201q-4 -35 -4 -71t4 -73z" />
<glyph unicode="H" horiz-adv-x="2680" d="M84 -716.5q0 36.5 5 59.5q14 61 32 86q4 2 19 12q10 6 28 6q27 0 43 -16q20 -20 20 -44q0 -14 -7 -30q-15 -34 -15 -74t17 -78q35 -69 113 -83q17 -3 34 -3q60 0 117 39q72 50 160 197q99 163 180 373q15 37 36.5 94.5t36 99.5t13.5 43q-6 0 -12 -2q-87 -20 -110 -23 t-40 5q-18 10 -28 30q-11 25 0 50q9 20 22 27t55 16q13 3 51 12t50 12l59 14l2 11q1 2 7.5 24.5t18.5 62.5t23 75q64 206 80 274q42 165 42 280q0 45 -7 82q-20 100 -83.5 165t-158.5 85q-26 4 -53 4l-53 -4q-92 -19 -156 -82t-84 -155q-6 -28 -5.5 -57t5.5 -58 q27 -127 133 -195q43 -30 109 -43q25 -5 37.5 -13t19.5 -25q4 -9 4 -25t-4 -25q-11 -22 -31 -32q-12 -5 -29 -5q-37 0 -100 25q-175 69 -243 250q-25 65 -25 145q0 62 12 111q38 135 147 221t249 92h10q149 0 260 -86q143 -109 168 -311q3 -23 3 -76.5t-3 -81.5 q-12 -100 -41 -211q-13 -56 -74 -258l-37 -120h1q7 0 68 19q67 21 116 38q254 91 438 180l31 14l12 39q119 317 289 617q77 131 145 182q58 45 125 55q20 4 39 4q77 0 137 -45t80 -118q4 -18 4 -56q0 -40 -4 -63q-37 -174 -223 -354q-189 -186 -479 -336l-25 -13l-14 -45 q-47 -142 -78.5 -273t-77.5 -380q-24 -133 -33 -174q-14 -77 -14 -131q0 -46 4 -64q18 -85 72 -106q12 -6 34 -6q17 0 40 4q135 30 245 155q130 140 213 304q17 32 31 43.5t37 11.5q19 0 29 -6q32 -16 32 -56q0 -16 -16 -49q-60 -118 -149 -233t-169 -178 q-107 -87 -231 -115q-25 -4 -63 -4q-40 0 -56 4q-93 24 -145 127q-31 62 -35 134q-1 13 0 28q0 65 16 155q60 321 89 455t65 262l18 62q-2 0 -24 -11q-304 -136 -606 -219q-13 -4 -13 -6q-5 -5 -30 -90q-93 -276 -193 -471q-119 -238 -219 -338q-106 -103 -236 -109h-13 q-100 0 -176 60q-82 64 -105 170q-5 23 -5 59.5zM1928 492q3 0 108 67q252 167 363 334q41 61 59 121q11 37 10 65q0 18 -4 33q-6 17 -23 34t-36 23q-16 3 -32 3l-32 -3q-47 -12 -85.5 -51.5t-88.5 -126.5q-120 -212 -200 -403q-12 -26 -21.5 -49t-14 -35t-3.5 -12z" />
<glyph unicode="I" horiz-adv-x="1718" d="M133 -416q16 50 43 84q51 65 120 88q46 15 100 16q42 0 87 -10q122 -22 237 -100q34 -22 45 -36t11 -36q0 -18 -6 -28q-16 -33 -56 -33q-20 0 -49 20q-87 62 -190 89q-41 10 -75 10q-72 0 -114 -43q-24 -24 -33 -60q-6 -20 -6 -45.5t6 -56.5q22 -108 61 -172t105 -96 q54 -28 131 -41q22 -3 62 -3t59 3q71 10 135 49q47 26 104.5 70t92.5 81q46 49 77 99.5t68 134.5q17 38 41.5 93.5t40.5 93t17 38.5q2 2 -21 33q-44 56 -110 168q-141 230 -211 444q-60 178 -66 320v19q0 186 111 353q57 88 110 130.5t121 54.5q25 4 49 5q78 0 146 -48 q55 -35 116 -123t91 -172q26 -79 26 -189q0 -88 -14 -188q-32 -239 -74 -405t-115 -347l-14 -32l14 -17q65 -74 152 -147q25 -22 31 -35q15 -27 0 -53q-15 -35 -56 -35q-16 0 -28 6q-32 20 -119 107q-47 47 -49 47q-9 -22 -21 -47q-11 -30 -45 -105q-42 -96 -76 -158 q-76 -125 -215 -231q-82 -62 -148 -93.5t-138 -43.5q-38 -7 -75 -7q-24 0 -48 3q-228 22 -332 153q-56 71 -92 189q-24 84 -24 153q0 44 10 82zM968 700q24 -170 111 -364q53 -128 143 -277q78 -127 82 -127q1 0 10.5 25t21.5 59t19 56q73 214 117 553q12 88 12 166 q0 91 -22 153q-19 51 -62.5 117.5t-77.5 95.5q-28 25 -67 33q-16 4 -31 4q-30 0 -59 -14q-27 -13 -50 -37.5t-55 -71.5q-41 -64 -61 -110.5t-29 -104.5q-6 -35 -6 -79q0 -36 4 -77z" />
<glyph unicode="J" horiz-adv-x="1554" d="M82 -1960q0 40 3 62q19 144 82 307q92 230 307 465q118 129 275 237l28 21q0 1 -2 5.5t-6.5 13t-7.5 15.5q-110 233 -178 519q-60 262 -78 553q-11 157 -11 301q0 189 19 356q17 145 75.5 230.5t172.5 131.5q88 39 184 50q23 3 45 3l45 -3q139 -18 228 -195 q50 -99 73 -213q19 -100 19 -225q0 -131 -21 -277q-53 -375 -315 -1102l-8 -24q12 6 28 16q200 103 303 146q29 14 46 14q27 0 45 -18q17 -19 17 -41q0 -14 -7 -29q-6 -12 -15 -21q-4 -4 -36 -20q-208 -91 -406 -205q-41 -22 -41 -26q0 -6 64 -111q55 -84 98 -137 q23 -30 29 -42t6 -26q0 -16 -6 -26q-15 -35 -56 -35q-16 0 -28 6l-4 2t-3.5 2t-3.5 3.5t-3.5 3.5t-4.5 5t-5 6.5t-7 8.5t-8 10q-67 87 -101 139q-4 5 -8 11t-6 9.5t-4 6.5t-3 4t-1 0q-12 -20 -156 -473q-45 -137 -49 -152q-60 -186 -106 -281.5t-103 -152.5q-22 -26 -41 -37 q-41 -29 -86 -43q-18 -4 -53 -4q-49 0 -84 18q-101 48 -127 179q-3 19 -3 59zM216 -1872q-8 -47 -8 -84q0 -53 16 -86q13 -30 43 -45q10 -4 31 -4q25 0 57 18q62 43 115 152q44 96 145 414q60 194 121 370l39 115q-1 0 -19.5 -14.5t-40 -32.5t-28.5 -25q-95 -78 -211 -221 q-105 -131 -167 -264.5t-93 -292.5zM630 244q29 -498 190 -899q27 -74 43 -101q1 -2 2 -2q2 0 5 8q4 10 16 45q193 540 260 807q85 331 85 568q0 17 -1 34q-6 246 -109 402q-39 60 -84 74q-19 6 -43 6q-13 0 -28 -2q-96 -12 -176 -49q-76 -36 -111 -101.5t-45 -195.5 q-14 -155 -14 -316q0 -137 10 -278z" />
<glyph unicode="K" horiz-adv-x="2699" d="M84 -716.5q0 36.5 5 59.5q14 61 32 86q4 2 19 12q10 6 28 6q27 0 43 -16q20 -20 20 -44q0 -14 -7 -30q-15 -34 -15 -74t17 -78q35 -69 113 -83q17 -3 34 -3q60 0 117 39q72 50 160 197q85 141 156 312t149 421q24 71 66 208t51 173q65 219 65 359q0 48 -8 87 q-20 100 -83.5 165t-158.5 85q-26 4 -53 4l-53 -4q-92 -19 -156 -82t-84 -155q-4 -18 -4 -58q0 -39 4 -57q27 -127 133 -195q43 -30 109 -43q25 -5 37.5 -13t19.5 -25q4 -9 4 -25t-4 -25q-11 -22 -31 -32q-12 -5 -29 -5q-37 0 -100 25q-175 69 -243 250q-25 65 -25 145 q0 62 12 111q38 135 147 221t249 92h10q149 0 260 -86q143 -109 168 -311q3 -23 3 -76.5t-3 -81.5q-19 -145 -70 -319q-3 -13 -7.5 -28t-6.5 -23t-2 -9q-2 -3 2 -4h14q111 0 215 64q102 62 183 149q41 44 73.5 89t92.5 139q109 174 196 266q118 121 248 186q72 37 139 45 q20 5 41 5q25 0 51 -7q44 -11 74 -35q63 -47 90 -133q14 -41 17 -86v-14q0 -61 -23 -119q-13 -29 -33 -39q-10 -6 -28 -6q-23 0 -45 19q-17 20 -17 43q0 14 6 28q15 38 15 74q0 69 -39 117q-24 33 -68 33h-8q-36 -4 -80 -19q-113 -44 -237 -168q-50 -50 -88.5 -101.5 t-104.5 -154.5q-61 -98 -101.5 -152.5t-90.5 -105.5q-119 -125 -244 -186l-27 -11l19 -38q42 -83 57 -185q2 -23 2 -88q0 -84 -16 -211q-10 -87 -15 -123q-3 -28 -3.5 -81t3.5 -72q7 -60 27 -110.5t63 -119.5q33 -55 50 -77t34 -31q10 -4 35 -4q29 0 47 6q135 38 240 151 q115 123 207 295q21 39 34.5 51.5t36.5 12.5q19 0 29 -6q33 -16 33 -56q0 -16 -8 -32q-53 -108 -140.5 -227t-162.5 -183q-121 -105 -263 -133q-18 -4 -55 -4q-49 0 -80 14q-55 23 -110 105q-110 168 -133 284q-11 62 -11 135q0 12 -0.5 20.5t0 19t0.5 16.5t1 18.5t1.5 18 t2.5 22.5l3 25.5t4 33.5t5 39q16 127 16 203q0 70 -8 111q-18 86 -59 145q-5 9 -7.5 12t-4.5 4t-5 1q-33 -8 -75 -8q-25 0 -52 3q-3 0 -4 -1t-3.5 -7.5t-6.5 -21.5q-87 -284 -149 -449t-136 -313q-119 -238 -219 -338q-106 -103 -236 -109h-13q-100 0 -176 60 q-82 64 -105 170q-5 23 -5 59.5z" />
<glyph unicode="L" horiz-adv-x="2183" d="M84 -717q0 69 31.5 133.5t85.5 102.5q35 28 80 39q38 12 82 12q104 0 237 -66q77 -39 184 -112l21 -15l12 17q86 122 172 379q18 54 40 130t20 79q-19 -5 -39 -9q-149 -39 -320 -39q-45 0 -92 3q-36 2 -47 8q-33 17 -33 55q0 40 35 55l12 6h31q39 -2 77 -2q57 0 111 4 q139 12 265 50l32 10l2 10q27 123 60 361q18 136 41 247q56 276 178 441q83 113 201 135q22 4 44 4q49 0 95 -20q66 -28 106 -89q55 -84 74 -256q4 -34 4 -92v-15q0 -45 -2 -67q-11 -105 -61 -202q-44 -88 -119 -170.5t-201 -182.5q-143 -114 -272 -176q-41 -19 -43 -26 q0 -2 -2 -11t-5.5 -24.5t-6.5 -28.5q-33 -134 -83.5 -277t-97.5 -239q-36 -70 -75 -125l-11 -14q0 -1 13 -10t33 -22t36 -22q159 -93 324 -114q28 -3 81 -3t81 3q251 27 403 176q47 50 72 88q17 27 30 36t33 9q19 0 29 -6q33 -17 33 -55q0 -27 -41 -80q-151 -205 -408 -269 q-112 -28 -227 -28q-32 0 -64 2q-239 17 -479 178l-35 23l-8 -7q-2 -2 -27 -22q-74 -65 -176 -117q-138 -69 -245 -69q-93 0 -164 51q-54 38 -85.5 102t-31.5 133zM211 -717q0 -33 4 -47q27 -87 104 -108q20 -6 47 -6q22 0 48 4q136 28 276 139q4 3 9.5 7.5t9 7t4.5 3.5 q3 3 -8 11q-4 3 -15.5 11t-19.5 13q-70 48 -121 74q-80 41 -154 51q-15 2 -28 2q-86 0 -129 -66q-27 -45 -27 -96zM1221 186l14 9q133 74 305 227q204 186 221 385q2 22 2 48q0 77 -20 183q-28 134 -105 154q-17 4 -33 4q-66 0 -122 -63q-104 -120 -158 -336 q-23 -85 -59 -334q-19 -138 -43 -266z" />
<glyph unicode="M" horiz-adv-x="3510" d="M94 870.5q0 41.5 3 63.5q12 71 43 129q50 97 139 158t201 71q12 2 39 2t41 -2q143 -15 250 -114q106 -103 131 -269q3 -26 3 -82t-3 -88q-7 -59 -4 -53q0 1 16 41q57 148 114 242t134 166q107 104 219 139q62 21 124 21q92 0 186 -46q127 -64 190 -192q33 -71 45 -148 q4 -38 4 -78q0 -50 -6 -104l-2 -22l-1.5 -16.5t-0.5 -6.5l4 8q6 12 23 58q56 140 110.5 228.5t128.5 158.5q107 104 219 139q61 20 123 20q92 0 184 -45q103 -49 166 -145q76 -116 76 -276q0 -27 -2 -56q-16 -215 -82 -473q-36 -142 -115 -401q-128 -428 -139 -549 q-2 -19 -2 -36q-1 -51 15 -95q20 -58 61 -76q12 -6 39 -6q29 0 49 6q113 28 215 127q135 139 234 328q18 33 31 44t36 11q19 0 29 -6q33 -16 33 -56q0 -14 -15 -43q-79 -159 -200 -301q-60 -71 -117 -116q-89 -68 -185 -100q-63 -20 -114 -21q-28 0 -53 6q-72 19 -120.5 85 t-60.5 161q-3 21 -3 47q0 35 5 80q18 132 144 549q70 230 110 387q43 172 65 323q17 115 17 186q0 23 -2 41q-10 115 -74.5 191t-169.5 98q-28 6 -59 6q-24 0 -49 -4q-106 -24 -215 -133q-80 -80 -139 -201q-43 -82 -117 -284q-126 -347 -236 -627l-51 -139l-24 -92 q-61 -231 -138 -482q-48 -156 -52 -161q-12 -20 -34.5 -27t-42.5 2q-23 11 -30 31q-8 13 -6.5 30t18.5 72q95 307 174 606q66 247 154 619q69 299 69 450q0 132 -65.5 220.5t-180.5 113.5q-28 6 -59 6q-24 0 -49 -4q-106 -24 -215 -133q-80 -80 -139 -201q-43 -82 -117 -284 q-22 -58 -68 -182.5t-86 -232t-73 -191.5q-60 -160 -78 -230q-58 -209 -88 -313q-91 -321 -106 -348q-13 -22 -30 -29q-26 -10 -49 0q-23 11 -30 31q-8 13 -6.5 30t18.5 72q105 341 182 641q93 356 148 594q67 290 67 438q0 25 -2 45q-10 116 -75.5 193.5t-170.5 99.5 q-28 4 -55 4t-53 -4q-81 -18 -139 -67q-80 -64 -101 -170q-6 -29 -6 -57.5t6 -57.5q27 -127 133 -195q43 -30 107 -43q32 -5 47 -20q16 -16 16 -43q0 -24 -18 -45q-18 -16 -47 -16q-14 0 -31 4q-122 24 -221 123q-89 96 -113 229q-3 22 -3 63.5z" />
<glyph unicode="N" horiz-adv-x="2586" d="M94 870q0 62 12 111q34 121 127 204t218 105q26 4 59 4q22 0 47 -2q112 -12 200 -73.5t138 -161.5q43 -89 49 -209q0 -88 -12 -168q0 -5 3 2q1 3 3 8q60 148 86 199q69 138 164 233q83 83 172 125q88 45 188 53q9 1 31 1q11 -1 26 -1q44 0 60 -2q174 -27 274 -124 q109 -103 127 -271q3 -20 3 -75t-3 -80q-17 -174 -53.5 -340t-111.5 -416q-2 -7 -22.5 -73t-27.5 -93q-109 -357 -118 -477q-1 -18 -1 -34q0 -53 14 -97q20 -56 60 -76q12 -6 39 -6q29 0 49 6q113 28 215 127q135 139 234 328q18 33 31 44t36 11q19 0 29 -6q33 -16 33 -56 q0 -16 -14 -43q-78 -156 -201 -301q-60 -71 -117 -116q-88 -68 -184 -100q-63 -20 -115 -21q-28 0 -53 6q-72 19 -120 85t-60 161q-2 24 -2 49q0 60 12 125q18 108 115 430q4 14 49 166q67 223 102.5 377t50.5 294q9 69 9 125q0 87 -21 144q-41 122 -160 172q-63 27 -135 33 q-22 2 -42 1q-47 0 -89 -10q-204 -55 -336 -284q-53 -95 -121 -277q-176 -473 -233 -620l-78 -209l-16 -66q-76 -285 -170 -594q-18 -60 -23 -65q-10 -23 -34 -31.5t-46 0.5q-23 11 -30 31q-8 13 -6.5 30t18.5 72q105 341 182 641q93 356 148 594q67 290 67 438q0 25 -2 45 q-10 116 -75.5 193.5t-170.5 99.5q-28 4 -55 4t-53 -4q-81 -18 -139 -67q-80 -64 -101 -170q-6 -29 -5.5 -57.5t5.5 -57.5q27 -127 133 -195q43 -30 107 -43q32 -5 47 -20q16 -16 16 -43t-16 -43q-17 -17 -49 -17q-14 0 -31 3q-84 17 -154 66t-116 122q-41 58 -54 123 q-12 47 -12 104z" />
<glyph unicode="O" horiz-adv-x="2105" d="M117 -206q0 88 3 122q15 209 63 367q47 161 142 335q89 158 190.5 295.5t183.5 208.5q165 145 371 166q42 7 45 8q35 7 41 7q22 4 48 4q34 0 77 -7q133 -21 254 -106q86 -61 138 -133t81 -170q26 -84 38 -212q8 -84 7 -166q0 -43 -2 -85q-18 -329 -133 -592 q-12 -28 -12 -29q74 -44 127 -71q82 -47 157 -80q34 -17 35 -18q9 -9 15 -21q6 -10 6 -27q0 -16 -6 -26q-15 -35 -56 -35q-12 0 -24.5 4.5t-61.5 28.5q-149 75 -229 123l-21 12l-12 -21q-64 -116 -168 -262q-138 -191 -239 -266q-125 -91 -320 -125q-95 -16 -167 -16 q-24 -1 -46 1q-84 8 -166 48q-59 29 -98 59q-122 88 -176 199q-65 128 -82 358q-3 34 -3 122zM243 -203v-30q0 -173 32 -295q22 -83 60 -139.5t108 -110.5q93 -68 185 -86q28 -4 63 -4t78 4q227 28 348 127q106 86 240 288q43 62 88 137.5t41 78.5l-29 20q-86 62 -188 164 q-302 302 -398 649q-46 166 -46 291q0 104 32 180q8 20 8 21q-5 0 -67 -48q-76 -62 -176.5 -197t-190.5 -294q-74 -136 -115.5 -264.5t-60.5 -280.5q-12 -94 -12 -211zM953 809q20 -148 74 -285q78 -209 264 -418q75 -83 168 -161q13 -12 34 -28t36 -27t16 -11q6 0 37 86 q50 135 74 303q18 125 18 246q0 41 -2 82q-12 210 -59 317q-41 96 -139 170q-93 69 -199 93q-36 7 -67 7q-35 0 -62 -9q-7 0 -21 -7q-48 -12 -96 -57q-58 -61 -76 -152q-6 -34 -6 -71t6 -78z" />
<glyph unicode="P" horiz-adv-x="2510" d="M98 -692q0 56 23 182q3 16 14.5 77.5t16.5 88.5q6 29 16.5 87.5t13.5 72.5q42 221 99 384t147 326q75 134 168.5 263t169.5 204q67 64 136.5 105t199.5 94q161 64 280 94t244 37q4 2 53 2q260 0 443 -117q194 -124 266 -346q32 -97 32 -195q0 -85 -24 -171 q-37 -133 -123.5 -239t-208.5 -167q-96 -49 -213 -67q-28 -3 -79.5 -3t-79.5 3q-116 17 -215 67q-98 49 -170 127l-23 23q-2 0 -14 -52q-45 -157 -84 -262q-55 -144 -154 -311t-201 -287q-221 -270 -444 -315q-28 -4 -52 -4q-29 0 -52 6q-45 11 -76 35q-51 39 -80 106.5 t-29 151.5zM225 -690q0 -45 4 -68q24 -102 99 -108h8q51 0 127 37q134 69 268 231q93 112 185 266t145 285q66 167 168 586q45 186 47 239v16q0 121 -88 171q-41 20 -41 59q0 19 6 29q16 32 55 32q17 0 31 -6q77 -38 125 -125q36 -70 36 -160q0 -27 -3 -55q-4 -51 -58 -272 q-22 -97 -22 -98h4q4 0 18 -7q13 -8 29 -26q45 -59 113 -103.5t143 -66.5q76 -22 150 -22q64 0 127 16q137 35 239 137q119 119 148 287q4 29 4 80q0 53 -2 71q-27 166 -133 281q-142 163 -414 182q-30 2 -57 2t-52 -2q-118 -7 -230 -36t-267 -91q-107 -43 -165.5 -77.5 t-115.5 -88.5q-58 -55 -136 -158.5t-140 -209.5q-119 -197 -183 -383q-35 -105 -59.5 -210.5t-63.5 -312.5q-6 -32 -16.5 -92t-13.5 -74q-19 -109 -19 -155z" />
<glyph unicode="Q" horiz-adv-x="2285" d="M84 -729v15q0 98 60 176q65 85 166 104q26 5 54 5q101 0 228 -60q90 -46 232 -148q66 -46 69 -49l10 -6l13 6q3 1 137 78q312 196 573 508q116 137 182.5 247t104.5 228q43 129 55 266q3 29 3 88.5t-3 87.5q-24 199 -114 277q-73 64 -202 80q-43 6 -89 6q-95 0 -207 -23 q-259 -54 -387 -227q-102 -135 -123 -334q-4 -41 -4 -83q0 -58 8 -116q12 -78 42 -114.5t83 -36.5q70 0 182 51q99 44 170.5 124t106.5 185q16 49 27 56q19 15 39 15q14 0 28 -7q19 -7 31 -31q8 -22 -2 -59q-70 -218 -246 -340q-125 -85 -279 -115q-29 -4 -56 -4t-52 4 q-167 38 -197 248q-8 49 -8 141q0 73 2 96q26 241 166 418q15 20 50 55t55 50q98 73 223 116q132 45 295 54q17 1 56 1t58 -1q247 -18 365 -173q82 -111 102 -296q4 -31 4 -105q0 -92 -10 -160q-30 -243 -153 -460q-85 -148 -236.5 -323t-306.5 -304q-169 -143 -338 -236 l-23 -14q0 -5 84 -39q81 -34 183 -51q73 -12 151 -12q72 0 148 10q157 22 262 80q121 68 192 178q22 31 34 40t34 9q19 0 29 -6q32 -16 32 -55q0 -23 -28 -64q-56 -85 -133 -143q-177 -144 -472 -170q-29 -3 -96.5 -3t-93.5 3q-174 18 -311 78q-73 30 -144 73q-3 3 -26 -8 q-175 -82 -357 -129q-88 -23 -156 -23q-46 0 -83 11q-82 23 -135 95.5t-58 164.5zM209 -706v-11q0 -41 19 -80q28 -55 79 -71q26 -8 56 -8h15q39 3 110 20q98 25 231 76q53 22 53 26q-6 6 -118 84q-91 60 -164 88q-66 23 -94 25q-14 2 -28 2q-85 0 -130 -66q-26 -38 -29 -85 z" />
<glyph unicode="R" horiz-adv-x="2418" d="M98 -692q0 56 23 182q3 16 14.5 77.5t16.5 88.5q44 235 67 336q50 198 123.5 364t189.5 342q164 243 297 351q63 51 199 112q174 74 300.5 109.5t248.5 44.5q4 2 20 2t45 -2q70 0 150 -15q192 -39 326 -170q78 -73 131 -178q61 -125 67 -266v-18q0 -222 -141 -406 q-63 -80 -147 -133q-75 -46 -230 -102q-88 -28 -158 -28q-65 0 -114 24q-19 9 -29.5 16.5t-48.5 38.5q-52 42 -84 65l18 -18q50 -53 72 -123q23 -70 23 -184q0 -68 -7 -152q-6 -68 -6 -143q0 -76 11 -123q19 -91 72 -160.5t120 -91.5q18 -6 45 -6q29 0 43 4q70 21 174 125 q50 50 94 104q89 113 144 226q15 30 28.5 40.5t36.5 10.5q19 0 29 -6q33 -16 33 -56q0 -14 -17 -49q-94 -191 -243 -342q-83 -86 -147.5 -127.5t-129.5 -52.5q-22 -4 -45 -4q-41 0 -84 14q-33 10 -78 37q-73 47 -126.5 130.5t-73.5 182.5q-11 62 -11 144q0 65 7 149 q8 99 8 162q0 44 -4 70q-11 70 -39 110q-15 26 -54 47l-20 13l-18 -51q-40 -124 -95 -234q-131 -269 -293 -461q-221 -270 -444 -315q-28 -4 -52 -4q-29 0 -52 6q-45 11 -76 35q-51 39 -80 106.5t-29 151.5zM225 -690q0 -45 4 -68q24 -102 99 -108h8q51 0 127 37 q134 69 268 231q98 119 193 279t147 296q22 56 46.5 136.5t29.5 107.5q0 19 8 35l8 25q6 15 40 153.5t52 218.5t21 125v16q0 121 -88 171q-41 20 -41 59q0 19 6 29q16 32 55 32q17 0 31 -6q77 -38 125 -125q37 -71 37 -162v-14q-3 -51 -15.5 -111.5t-56.5 -240.5 q-23 -101 -24 -102q0 -5 6 -7q1 -1 7 -3t14 -5.5t14 -7.5q67 -35 180 -127q50 -40 73 -45q17 -5 40 -5q72 0 194 50q92 37 144 72t98 92q110 137 116 309v17q0 201 -135 352q-60 66 -145 110.5t-180 57.5q-7 1 -24.5 3t-23.5 3q-26 2 -53 2q-166 0 -379 -78 q-144 -50 -239 -98q-76 -38 -136.5 -92t-134.5 -150q-221 -287 -325 -569q-42 -114 -71.5 -233.5t-70.5 -340.5q-6 -32 -16.5 -92t-13.5 -74q-19 -109 -19 -155zM1284 190q3 0 23 -12q8 -6 24 -14l6 -4q0 1 -18 12q-28 18 -34 18h-1zM1352 152q0 -1 4 -5z" />
<glyph unicode="S" horiz-adv-x="2082" d="M89 -895q9 20 26 29q1 1 5.5 2.5t13 4.5t14.5 5q123 41 229 139q27 27 33 31l8 10l-18 25q-77 109 -105 196q-22 69 -22 140q0 48 10 98q10 52 37 65q12 7 29 7q23 0 45 -19q13 -13 15.5 -30t-5.5 -48q-6 -32 -6 -65q0 -96 53 -191q6 -14 18.5 -34.5t22 -34t10.5 -13.5 q3 0 115 144q68 87 133 182q143 199 216.5 313t137.5 238l25 45l-25 27q-153 156 -198 321q-19 64 -19 128q0 84 33 169q24 59 69.5 134t80.5 110q50 53 114 65q17 3 33 2l71 -12q52 -19 91 -61q84 -89 84 -229q0 -37 -6 -78q-12 -92 -57.5 -236t-104.5 -274l-14 -33l30 -23 q42 -31 146 -96q108 -68 162 -109.5t112 -99.5q112 -112 170 -225q41 -86 49 -148q8 -45 7 -89q0 -157 -97 -302q-69 -103 -155 -162.5t-207 -85.5q-96 -21 -219 -30q-37 -3 -122 -3t-120 3q-180 17 -300.5 64t-215.5 136l-23 23l-12 -14q-83 -83 -182 -138q-43 -23 -92 -42 t-68 -19q-34 1 -52 29q-9 15 -10 31q0 14 7 28zM584 -678l23 -22q81 -79 198 -121q98 -35 252 -47q29 -3 105 -3t108 3q168 14 261 44t157 93q86 89 125 196q21 63 21 124q0 84 -39 165q-35 76 -104.5 156t-155.5 145q-29 22 -144 97q-70 43 -141 92q-20 16 -23 16l-13 -22 l-3 -5q-96 -186 -272 -436q-188 -271 -336 -450q-19 -23 -19 -25zM1023 901q-10 -41 -10 -82q0 -143 122 -297q46 -53 49 -53q3 2 23.5 51t32.5 84q92 252 98 373v14q0 63 -24 113q-26 54 -72 67q-11 3 -22 3q-45 0 -87 -60q-54 -78 -76 -123q-22 -42 -34 -90z" />
<glyph unicode="T" horiz-adv-x="2398" d="M133 -416q16 50 43 84q51 65 120 88q46 15 100 16q42 0 87 -10q122 -22 237 -100q34 -22 45 -36t11 -36q0 -40 -35 -55q-10 -6 -27 -6q-20 0 -49 20q-87 62 -190 89q-41 10 -75 10q-72 0 -114 -43q-24 -24 -33 -60q-6 -20 -6 -45.5t6 -56.5q28 -141 89 -209.5t180 -93.5 q50 -10 96 -10q54 0 102 14q90 26 191 108q103 83 177 190.5t140 268.5q126 301 312 940q24 80 53.5 183t48.5 173.5t18 71.5q-2 0 -39 11q-7 2 -45.5 12.5t-58.5 17.5q-109 31 -169.5 42t-135.5 14h-25q-80 0 -202 -15q-126 -15 -195 -57q-56 -34 -88 -83q-29 -45 -29 -94 v-9q6 -78 70 -142q64 -66 158 -94q58 -17 118 -16q37 0 76 6q32 6 39 4q22 -4 37 -19q20 -25 14 -54.5t-33 -43.5q-16 -7 -62 -13q-39 -5 -73 -5h-12q-105 5 -196.5 43.5t-157.5 107.5q-79 82 -99 178q-4 27 -4 53q0 31 6 60q8 37 31 82q81 162 316 209q91 18 204 24 q34 2 72 1q56 0 117 -3q109 -13 272 -61q114 -34 182 -47q79 -16 150 -16q174 0 299 96q33 22 53 22q26 0 44 -17.5t18 -43.5q0 -21 -13.5 -37t-52.5 -43q-116 -78 -270 -98q-22 -3 -80 -3t-84 3q-28 4 -29 4q-6 -25 -14 -56q-178 -647 -320 -1052q-85 -241 -146.5 -374 t-133.5 -230q-68 -91 -155 -166.5t-173 -116.5q-80 -39 -147 -49q-29 -5 -78.5 -5t-81.5 5q-95 13 -178 55q-152 79 -209 283q-24 84 -24 153q0 44 10 82z" />
<glyph unicode="U" horiz-adv-x="2588" d="M96 870q0 58 13 111q29 107 105.5 185t182.5 110q41 12 84 16q20 2 40 2l40 -2q94 -10 172 -56.5t131 -121.5q60 -90 78 -207q3 -23 3 -76t-3 -81q-9 -88 -37 -220q-37 -139 -121 -389q-108 -326 -135 -456q-22 -108 -22 -203q0 -55 4 -78q24 -144 125 -211 q44 -27 84 -41q68 -22 138 -22q52 0 105 12q94 26 176.5 96.5t145.5 177.5q60 109 129 295q7 19 22.5 59.5t39 100t36.5 94.5q144 377 199 537q117 334 203 696q13 55 18 62q17 31 53.5 31t53.5 -31q12 -21 6 -48q-14 -79 -97 -376q-94 -316 -108 -344q-13 -40 -49 -170 q-50 -201 -107 -553q-41 -260 -47 -297q-19 -98 -22 -148v-13q0 -87 37 -138q16 -22 38 -33q10 -4 35 -4q29 0 41 2q120 29 225 131q135 139 234 328q17 32 31 43.5t37 11.5q18 0 28 -6q33 -16 33 -56q0 -16 -14 -43q-104 -207 -260 -366q-77 -74 -166 -121 q-60 -29 -125 -45q-25 -4 -64 -4t-55 4q-83 23 -131.5 101.5t-48.5 189.5q0 59 24 190q5 33 14 86.5t15 89.5t6 37l-16 -41q-79 -208 -142 -317q-118 -200 -286 -285q-73 -40 -164 -55q-37 -6 -80 -6q-35 0 -72 4q-301 46 -385 301q-22 67 -22 155v21q0 100 24 223 q17 80 41.5 163t98.5 308q103 309 133 451q21 109 21 191q0 54 -9 98q-20 99 -82.5 162.5t-157.5 82.5q-26 4 -53 4l-53 -4q-92 -19 -156 -82t-84 -155q-6 -29 -5.5 -57.5t5.5 -57.5q27 -127 133 -195q43 -30 107 -43q32 -5 47 -20q16 -16 16 -43q0 -24 -18 -45 q-18 -16 -47 -16q-14 0 -31 4q-84 17 -154 66t-116 122q-39 56 -53 123q-13 51 -13 104z" />
<glyph unicode="V" horiz-adv-x="2250" d="M94 870q0 62 12 111q29 107 106 185t183 110q65 18 122 18q21 0 40 -2q156 -17 259.5 -123t123.5 -270q3 -22 3 -74t-3 -75q-14 -146 -68 -326q-18 -69 -98 -307q-87 -259 -110 -359q-43 -173 -44 -318q0 -33 3 -65q8 -122 30.5 -179t69.5 -70q13 -5 41 -5q26 0 55 7 q162 44 314 172q162 140 344 428q165 259 256 485l14 35l-23 20q-151 162 -194 441q-10 66 -10 121q0 49 8 88q16 84 76 184q64 98 75 110q56 71 131 86q18 2 34 2q29 0 52 -6q81 -19 132 -90q51 -68 51 -171q0 -20 -2 -42q-9 -83 -55.5 -268t-100.5 -350q-11 -41 -23 -72 l-6 -16l23 -15q90 -65 178 -96q39 -15 50 -22.5t18 -24.5q5 -11 5 -23q0 -21 -16 -45l-18 -12q-12 -6 -31 -6q-22 3 -51 14q-95 38 -188 99l-15 10l-2 -4q-26 -70 -84 -185q-186 -370 -411 -632q-62 -73 -138 -140q-118 -101 -256 -159q-116 -48 -200 -48q-41 0 -74 11 q-142 48 -172 241q-14 89 -14 182q0 172 47 361q25 106 112 365q72 215 97 300.5t43 172.5q23 109 23 196q0 65 -13 117q-23 89 -84.5 146.5t-151.5 76.5q-26 4 -53 4l-53 -4q-92 -19 -156 -82t-84 -155q-4 -18 -4 -58q0 -39 4 -57q27 -127 133 -195q43 -30 107 -43 q32 -5 47 -20q16 -16 16 -43q0 -24 -18 -45q-18 -16 -47 -16q-14 0 -31 4q-84 17 -154 66t-116 122q-41 58 -54 123q-12 47 -12 104zM1647 829q0 -63 10 -120q26 -168 96 -277l39 -51q3 3 49 154q106 375 113 491v13q0 47 -19 80q-22 38 -63 52q-13 4 -25 4q-38 0 -67 -36 q-43 -57 -72 -109q-45 -73 -57 -135q-4 -20 -4 -66z" />
<glyph unicode="W" horiz-adv-x="3176" d="M96 870q0 58 13 111q29 107 105.5 185t182.5 110q41 12 84 16q20 2 40 2l40 -2q109 -12 196 -71.5t134 -155.5q34 -62 47 -139q10 -51 10 -118v-22q0 -69 -14 -235q-44 -435 -70 -916q-14 -233 -14 -249q1 0 448 938q446 939 453 946t21 14q10 6 26 6q26 0 44 -17.5 t18 -43.5q0 -14 -82 -883l-84 -870q2 0 12 28q84 198 156 359q154 351 267 537.5t335 455.5q124 147 186 209q155 149 336 215q24 10 42 10q14 0 26 -6q18 -7 30 -31q6 -11 6 -22q0 -14 -8 -29q-10 -19 -24 -28q-3 0 -33 -13q-128 -49 -232 -135q-49 -41 -97.5 -93.5 t-135.5 -156.5q-218 -264 -326.5 -442.5t-257.5 -519.5q-202 -467 -305 -713q-24 -57 -31 -64q-8 -8 -20 -14q-10 -6 -27 -6q-26 0 -43.5 16.5t-17.5 42.5q0 13 86 908q20 217 41 441.5t32 338.5l11 115q-3 0 -438 -918q-437 -918 -443 -924q-8 -8 -20 -14q-15 -8 -28 -8 q-12 0 -23 6q-24 12 -31 31q-6 12 -6 37q0 98 24 516q23 454 72 952q14 162 14 229v20q0 58 -10 105q-31 161 -162 228q-35 17 -73 24q-29 6 -60 6q-26 0 -53 -4q-92 -19 -156 -82t-84 -155q-6 -29 -5.5 -57.5t5.5 -57.5q27 -127 133 -195q43 -30 107 -43q32 -5 47 -20 q16 -16 16 -43q0 -24 -18 -45q-18 -16 -47 -16q-14 0 -31 4q-84 17 -154 66t-116 122q-39 56 -53 123q-13 51 -13 104z" />
<glyph unicode="X" horiz-adv-x="2600" d="M84 -702q3 56 27 106q11 26 30 37q10 6 29 6q27 0 43 -16q19 -19 19 -45q0 -8 -9 -35q-14 -38 -14 -76q3 -51 35 -98q42 -55 120 -54q36 0 79 11q136 34 260 143q67 58 147 160.5t148 216.5q96 158 219 467q24 62 41 131q72 288 88 446q3 29 3 85t-3 81q-17 122 -76 199 q-83 99 -242 111q-21 2 -42 2q-105 0 -187 -43q-59 -29 -95 -78.5t-61 -134.5q-17 -69 -18 -115q0 -20 4 -35q9 -54 53 -84q44 -31 103 -31q35 0 71 15q35 12 56 2q19 -9 30 -29q6 -10 6 -29q0 -41 -45 -61q-64 -24 -125 -24q-18 0 -35 2q-78 9 -142 59t-87 125 q-14 41 -14 90q0 83 39 192q38 110 104 179q41 39 103 69q66 35 161 49q31 4 82 4t82 -4q177 -27 273 -129q114 -117 129 -327q2 -18 2 -54q-1 -9 -1 -20q0 -52 -3 -66q0 -8 7 4l13 23q92 147 187.5 262.5t181.5 179.5q155 118 321 140q23 3 46 3l46 -3q119 -16 185 -117 q51 -74 51 -169v-11q-3 -53 -29 -111q-11 -24 -32 -35q-9 -4 -25 -4t-25 4q-23 11 -32 33q-9 24 4 59q14 38 14 78q-3 49 -35 96q-43 56 -119 56q-35 0 -77 -12q-138 -34 -263 -144q-67 -58 -146.5 -160t-147.5 -217q-99 -162 -220 -467q-24 -62 -41 -131q-72 -287 -88 -444 q-3 -31 -3 -87t3 -81q17 -122 76 -199q82 -98 242 -110q21 -2 42 -2q105 0 187 43q59 29 95 79t61 136q17 67 17 112q0 20 -3 35q-9 54 -53 84q-44 31 -102 31q-38 0 -72 -14q-17 -7 -32 -7q-24 0 -42 17q-18 21 -18 45q0 41 45 61q64 24 125 24q18 0 35 -2q78 -9 142 -59 t87 -125q14 -41 13 -90q0 -83 -38 -192q-38 -110 -104 -176q-43 -43 -100 -72q-69 -35 -164 -49q-31 -5 -82 -5t-82 5q-177 27 -273 129q-114 117 -129 328q-2 18 -2 54v20q0 52 4 65q0 8 -7 -4l-13 -21q-191 -311 -369 -444q-101 -76 -214 -114q-84 -28 -153 -28 q-24 0 -46 3q-120 16 -185 116q-51 74 -51 170v11z" />
<glyph unicode="Y" horiz-adv-x="2275" d="M94 870q0 62 12 111q29 107 106 185t183 110q41 12 84 16q21 2 43 2q65 0 131 -22q120 -41 195 -138.5t92 -234.5q3 -22 3 -74t-3 -75q-15 -151 -63 -316q-9 -35 -97 -299q-66 -197 -92 -287.5t-43 -181.5q-24 -116 -24 -192q0 -27 3 -48q12 -83 81 -184q46 -69 76 -93.5 t73 -27.5h9q48 0 128 29q106 40 193 113.5t188 208.5q184 244 318 575q7 18 17 45t11 31q16 46 127.5 430.5t173.5 607.5q25 89 29 96q10 23 34.5 31t47.5 -4q19 -7 31 -31q5 -7 5 -19q0 -6 -2 -13q-3 -21 -24 -95q-15 -51 -70 -244.5t-79 -275.5q-27 -95 -47 -172 q-31 -133 -76 -258q-5 -19 -16.5 -55.5t-28 -87.5t-25.5 -80q-121 -406 -153 -504q-5 -15 -11 -34.5t-9 -29t-3 -10.5q57 35 125 76q73 43 158 93.5t128 76t46 27.5q12 4 24 4q19 0 29 -6q19 -11 29 -31q5 -13 5 -25q0 -21 -16 -41q-3 -5 -69 -45q-64 -37 -248.5 -147.5 t-226.5 -136.5l-41 -27l-25 -76q-89 -260 -219 -577q-11 -29 -32 -80t-36.5 -89.5t-23.5 -60.5q-60 -155 -100.5 -234.5t-92.5 -150.5q-47 -62 -94 -96q-53 -37 -104 -43q-18 -3 -36 -3q-65 0 -118 43q-69 55 -86 153q-5 26 -5 59q0 96 44 246q39 136 103 255.5t171 250.5 q65 84 172 194q140 137 303 244q10 6 24 15.5t23.5 15.5t12.5 8l14 8l21 68q32 106 30 106q-9 -14 -46.5 -63.5t-51.5 -63.5q-90 -110 -175.5 -177t-188.5 -106q-106 -42 -188 -42q-48 0 -87 14q-48 17 -86.5 53.5t-87.5 110.5q-91 135 -102 258q-2 21 -2 45q0 117 47 309 q36 142 119 387q87 266 94 291q63 219 63 357q0 42 -6 77q-17 107 -80.5 176.5t-163.5 89.5q-27 4 -53 4l-53 -4q-92 -19 -156 -82t-84 -155q-5 -29 -5 -57.5t5 -57.5q27 -127 133 -195q43 -30 107 -43q32 -5 47 -20q16 -16 16 -43q0 -24 -18 -45q-18 -16 -47 -16 q-14 0 -31 4q-84 17 -154 66t-116 122q-41 58 -54 123q-12 47 -12 104zM723 -1890q-6 -37 -6 -68q0 -76 37 -113q22 -22 49 -22q16 0 33 7q49 20 100 87q45 61 81 133t95 219q9 24 35 89t35 88q145 353 192 495q21 54 21 57q-4 0 -80 -59q-124 -98 -251 -243.5t-202 -276.5 q-100 -175 -139 -393z" />
<glyph unicode="Z" horiz-adv-x="1990" d="M84 -715q0 51 14 90q26 79 90 132.5t150 68.5q32 6 67 6q51 0 111 -12q100 -20 203 -72q93 -48 164 -119l32 -32l31 22q127 98 254 207q174 150 256.5 268t177.5 353q67 169 93.5 258.5t35.5 181.5q4 40 4 80q0 56 -8 112q-29 215 -141 287q-78 50 -200 60q-32 3 -64 3 q-95 0 -205 -22q-213 -45 -334 -166q-152 -152 -176 -395q-4 -41 -4 -83q0 -58 8 -116q12 -78 42 -114.5t83 -36.5q70 0 182 51q99 44 170.5 124t106.5 185q16 50 26 56q20 15 40 15q14 0 28 -7q19 -7 31 -31q8 -22 -2 -59q-70 -218 -246 -340q-125 -85 -279 -115 q-29 -4 -56 -4t-52 4q-167 38 -197 248q-8 49 -8 141q0 73 2 96q26 244 166 418q15 21 49.5 55.5t54.5 49.5q120 91 275 131q135 34 244 39q17 1 56 1t58 -1q220 -18 334 -138q110 -113 137 -346q3 -34 3 -98t-3 -98q-12 -107 -39 -200.5t-98 -270.5q-101 -244 -172 -351 q-93 -144 -299 -321q-140 -121 -258 -209q-35 -27 -35 -29q2 -2 2 -4q5 -5 41 19q282 185 703 370q52 23 71 25q19 0 27 -4q24 -12 31 -31q6 -10 6 -27q0 -16 -6 -26q-6 -12 -15 -21q-51 -25 -61 -30q-342 -145 -656 -340q-79 -49 -88 -58l7 -28q18 -73 18 -155 q0 -188 -94 -421q-57 -138 -138 -285.5t-155 -244.5q-61 -83 -110.5 -126.5t-100.5 -60.5q-33 -10 -64 -10q-49 0 -93 24q-72 40 -101 132q-13 41 -16 90q0 58 16 139q51 260 203 488q77 114 182 230.5t209 205.5q76 61 80 63q4 4 2 10l-2 7l-29 -19q-156 -104 -291 -145 q-82 -25 -154 -25q-63 0 -118 19q-149 50 -197 192q-12 40 -12 90zM218 -776q23 -60 85 -90q48 -23 107 -23q151 0 378 148l23 14l-4 6q-13 21 -90 78q-49 32 -118.5 58.5t-131.5 37.5q-41 3 -67 3q-16 0 -27 -1q-29 -2 -68 -20q-63 -31 -87 -91q-12 -30 -11 -61 q0 -29 11 -59zM322 -1921q-2 -18 -2 -34q0 -78 36 -116q21 -18 44 -18h6q24 0 55 16q45 28 115.5 122t140.5 220q186 333 221 584q4 35 4 72q0 45 -6 94l-4 16q-2 0 -34 -27.5t-52 -45.5q-86 -74 -195 -199q-126 -151 -195.5 -276.5t-105.5 -270.5q-24 -87 -28 -137z" />
<glyph unicode="[" horiz-adv-x="1081" d="M152 -1655v3312l4 8q14 28 41 35h11q10 0 29 0.5t44.5 0.5h59t69.5 0.5t79.5 0.5h85.5h373l10 -6q34 -19 34 -56.5t-34 -56.5l-10 -4l-286 -2h-285v-3154h571l10 -6q34 -19 34 -56.5t-34 -56.5l-10 -4h-751l-11 4q-19 10 -30 31z" />
<glyph unicode="\" horiz-adv-x="1726" d="M85 1239q3 20 13 33q14 14 35 18h19q9 0 22.5 -7t18.5 -13q5 -7 722.5 -1237.5t720.5 -1238.5q12 -21 -2 -49q-15 -35 -55 -35q-17 0 -29 6q-16 11 -18 14q-5 7 -723 1237.5t-721 1238.5q-6 13 -3 33z" />
<glyph unicode="]" horiz-adv-x="1087" d="M90 -1639.5q0 37.5 34 56.5l12 6h570v3154h-285l-285 2l-12 4q-33 20 -33 57q0 20 12.5 37t32.5 23h10q11 0 30 0.5t44.5 0.5h59t70 0.5t80 0.5h85.5h373l8 -6q19 -10 31 -29l6 -10v-3312l-6 -10q-10 -19 -29 -31l-10 -4h-752l-12 4q-34 19 -34 56.5z" />
<glyph unicode="^" horiz-adv-x="1978" d="M113 23q4 10 414.5 728t415.5 724q12 16 34 20h19q9 0 22.5 -7t18.5 -13t415 -724t414 -728q10 -24 0 -48q-10 -20 -28 -30q-10 -6 -29 -6q-28 0 -45 20q-8 8 -391 678l-383 670q-172 -302 -383 -670q-383 -670 -391 -678q-17 -20 -46 -20q-18 0 -28 6q-20 11 -29 30 q-10 24 0 48z" />
<glyph unicode="_" horiz-adv-x="2496" d="M160 -1638q0 20 12.5 36.5t32.5 22.5h5q500 2 1039 2h1039l10 -6q34 -19 34 -56.5t-34 -56.5l-10 -4h-2083l-12 4q-33 20 -33 58z" />
<glyph unicode="a" horiz-adv-x="2023" d="M129 -522v16q0 180 131 346q15 21 51.5 56.5t57.5 50.5q157 121 328 127h14q70 0 144 -18q81 -20 141 -58l12 -8q1 0 12 18q39 60 109 70q13 2 26 2q52 0 111 -31q100 -52 106 -153q0 -4 1 -8q0 -50 -23 -108q-24 -63 -86 -171q-66 -115 -82.5 -148.5t-24.5 -68.5 q-6 -28 -5.5 -56.5t5.5 -56.5q12 -58 37 -96t56 -47q10 -2 22 -2q20 0 46 6q43 10 87 31q83 44 144 108q134 140 225 318q18 33 31 44t36 11q19 0 29 -6q33 -16 33 -56q0 -14 -17 -49q-60 -117 -148.5 -232.5t-166.5 -178.5q-73 -58 -157 -91q-77 -30 -141 -30h-11 q-96 6 -162 90q-16 24 -34.5 62t-22.5 61l-4 10l-9 -12q-58 -99 -178 -160q-60 -29 -143 -45q-50 -8 -99 -8q-62 1 -122 13q-110 24 -187.5 83.5t-122.5 157t-49 217.5zM271 -625q23 -94 79 -150t150 -79q57 -13 112 -13q46 0 91 9q106 22 176.5 89t79.5 157q6 58 6 231 q0 157 6 219l2 21l-6 4q-6 7 -28 21.5t-34 19.5q-48 26 -120 39q-37 6 -70 6q-18 0 -35 -2q-51 -6 -65 -10q-87 -23 -168 -87t-133 -151q-59 -98 -58 -207q-1 -57 15 -117zM1090 -360v-82q1 0 16 26q3 5 8 14t8 14.5t5 8.5l6 10h-12q-9 0 -21 4zM1123 -123q36 -56 55 -127 l6 -29q5 0 45 91q18 43 18 73q0 9 -2 17q-6 31 -67 47q-16 5 -28 5q-8 0 -14 -2q-14 -6 -22 -34q-5 -12 -5 -18t14 -23z" />
<glyph unicode="b" horiz-adv-x="1792" d="M120 -420q-1 7 -1 13q0 12 4 20q1 3 5.5 9.5t12 18.5t13.5 21q35 50 41 59l14 23l8 41q27 148 58 381q32 263 65 446q39 200 107 379q33 77 67 135q92 143 211 168q16 3 32 4q25 0 52 -8q34 -10 68 -33q75 -56 94 -159q4 -23 3 -55q0 -21 -1 -46q-16 -167 -121 -409 q-129 -290 -477 -819l-47 -72l-4 -27q-30 -151 -31 -252q0 -9 1 -18q3 -105 42 -184q23 -46 46.5 -64.5t57.5 -17.5q113 10 248 123q73 61 141.5 144.5t94.5 143.5q18 45 18 88q0 25 -4 41.5t-25 79.5q-36 111 -36 166v8q3 57 41 95q34 34 94 43q18 3 35 3q53 0 90 -34 q31 -36 39 -84q1 -12 1 -28q0 -52 -12 -146q-9 -66 -9 -110q0 -49 11 -73q15 -38 80 -55q23 -6 52 -6q24 0 53 4q114 22 211 94q31 21 51 21q19 0 29 -6q17 -10 28 -31q5 -14 5 -26q0 -20 -13 -38q-2 -2 -6.5 -5.5t-11 -9t-11.5 -9.5q-94 -66 -202 -98q-74 -22 -137 -22 q-29 0 -56 5q-81 15 -141 68q-31 31 -39 51l-4 6q-4 -8 -8 -18q-35 -94 -121 -197q-121 -149 -254 -231q-57 -35 -113 -56l-43 -14q-47 -12 -85 -12q-50 0 -87 20q-72 37 -117 125q-43 81 -55 189q-4 31 -4 82v13q0 60 6 85q0 6 -4 6q-6 0 -19 6.5t-18 11.5q-10 13 -13 33z M381 15l1 -5q2 2 15 22l23 36q221 356 317 569q73 169 103 315q8 46 8 83q0 52 -16 85q-13 30 -43 45q-14 7 -29 7q-36 0 -76 -37q-78 -66 -143.5 -253.5t-106.5 -467.5q-4 -25 -15.5 -108.5t-23.5 -178t-14 -109.5v-3zM1008 -63q-7 -3 -7 -19q0 -30 25 -104l12 -33l9 45 q5 61 5 91q0 15 -1 22q-2 6 -8 6q-11 0 -35 -8z" />
<glyph unicode="c" horiz-adv-x="1511" d="M134 -567q-3 30 -3 59q0 139 71 262q104 176 276 260q100 50 199 64q22 3 45 3q34 0 68 -7q70 -15 121 -59t71 -107q9 -29 9 -64v-6q-1 -38 -13 -67q-12 -24 -31 -31q-15 -8 -29 -8q-21 0 -40 18q-19 19 -19 45q0 15 4 23q5 15 5 29q0 26 -17 51q-26 38 -78 51 q-22 6 -48.5 5.5t-55.5 -5.5q-224 -44 -350 -242q-64 -104 -64 -220q0 -19 2 -38q9 -102 58 -182q59 -88 204 -125q81 -20 153 -20q70 0 134 18q128 38 250 162q126 126 205 288q19 39 32 50.5t37 11.5q19 0 29 -6q27 -15 33 -45q1 -3 1 -7q0 -21 -24 -65 q-92 -189 -237 -328q-89 -89 -189 -139q-121 -60 -254 -66h-13q-64 0 -157 17q-80 16 -151 51q-64 31 -106.5 73.5t-73.5 104.5q-46 90 -54 191z" />
<glyph unicode="d" horiz-adv-x="2013" d="M146 -662q-22 78 -22 153q0 101 40 194q49 124 154 222.5t231 139.5q77 26 161 26q23 0 46 -2q109 -9 205 -57q89 -45 143 -118l12 -17l80 246q376 1125 383 1135q12 24 41 30q5 1 10 1q15 0 31 -7q17 -7 29 -31q1 -1 2 -4q6 -11 -6.5 -53t-94.5 -287q-28 -85 -45 -135 q-81 -241 -204 -614l-58 -170l-57 -291q-59 -300 -61 -317q-6 -38 -6 -71.5t6 -62.5q16 -83 69 -106q12 -6 37 -6q27 0 39 2q136 30 246 155q130 140 213 304q18 33 31 44t36 11q19 0 29 -6q33 -16 33 -56q0 -14 -17 -49q-60 -118 -148.5 -233t-168.5 -178 q-87 -71 -187 -103q-60 -19 -108 -19q-33 0 -61 9q-111 36 -156 168q-14 42 -14 63q0 7 -2 7q-7 -11 -13 -23q-44 -86 -117 -141q-62 -40 -112 -54q-92 -31 -185 -31q-72 0 -145 19q-73 16 -141 60q-132 86 -178 253zM266 -629q51 -189 250 -229q46 -9 92 -9t93 9 q133 24 192 113q22 35 39 79q12 31 67.5 197t55.5 172q0 10 -6 25q-17 65 -63.5 114.5t-116.5 75.5q-33 14 -88 25q-37 6 -70 6q-18 0 -35 -2q-51 -6 -65 -10q-87 -23 -168.5 -87t-133.5 -151q-59 -100 -59 -210q0 -58 16 -118z" />
<glyph unicode="e" horiz-adv-x="1421" d="M137 -520q-2 29 -2 57q0 106 29 205q58 208 231 283q67 33 147 43q14 1 28 1l62 -6q46 -12 74 -34q58 -43 86 -125q12 -42 15 -86q0 -6 1 -12q0 -89 -42 -195q-52 -133 -157 -233t-239 -144l-14 -4l4 -6q2 -2 11.5 -10t19.5 -15.5t16 -11.5q58 -37 143 -51q40 -6 78 -6 q42 0 80 8q136 30 252 155q124 136 211 304q17 32 31 43.5t37 11.5q18 0 28 -6q33 -16 33 -56q0 -16 -16 -49q-51 -99 -125.5 -200.5t-147.5 -171.5q-59 -59 -147 -107q-73 -37 -154 -51q-29 -4 -84 -4q-57 0 -80 4q-253 40 -346 225q-53 106 -63 244zM276 -317 q-17 -73 -17 -144q0 -75 19 -149q3 -14 5.5 -23t5 -15t4.5 -8q1 -1 3 -1h1q25 4 98 36q197 101 266 310q21 63 21 114q0 33 -9 62q-9 31 -28.5 51.5t-44.5 26.5q-8 1 -18 1q-34 0 -89 -16q-90 -26 -142 -84.5t-75 -160.5z" />
<glyph unicode="f" horiz-adv-x="1677" d="M82 -1970v8q0 136 98 389q67 170 183 430l30 70l-4 31q-8 71 -8 124q0 38 4 66q9 55 35 96q19 28 50 44q29 14 61 14h4h16l25 61q11 29 26.5 71t26 71t10.5 30l-8 8q-7 7 -14 21q-7 12 -7 26q0 16 6.5 28.5t30.5 39.5q8 10 24 27.5t19 21.5l15 19l16 49q48 159 78.5 278 t73.5 328q54 248 94 393q52 174 102 279.5t111 163.5q66 63 139 75q17 5 36 5q22 0 48 -7q34 -10 68 -33q76 -57 94 -159q4 -28 4 -60t-4 -67q-23 -142 -92 -316q-74 -191 -203 -391q-71 -110 -195 -275t-239 -302l-21 -23l-18 -57q-46 -133 -99 -271q-6 -16 -14 -36.5 t-11.5 -30t-4.5 -10.5l4 -4q37 -24 55.5 -40t42.5 -46q28 -32 44 -41t48 -9q39 0 103 21q114 41 178 88q58 44 139 149.5t141 216.5q19 35 32 46.5t36 11.5q40 0 55 -35q6 -10 6 -27q0 -21 -30 -75q-67 -120 -153 -228.5t-152 -158.5q-92 -67 -228 -111q-73 -24 -132 -24 q-54 0 -95 20q-26 13 -43 28.5t-45 49.5q-25 28 -39 39q-13 10 -16 10q-9 -20 -19 -45q-28 -69 -49 -113q-29 -77 -29 -78q0 -27 45 -256q48 -254 60 -340q8 -56 8 -98q0 -20 -2 -37q-11 -80 -52 -161t-104 -142q-43 -43 -86 -65q-49 -22 -97 -22q-14 0 -28 1q-61 9 -108 55 q-70 73 -76 191zM213 -1894q-6 -33 -6 -62q0 -61 27 -98q25 -38 62 -38v-1q37 0 79 37q35 30 68.5 81t48.5 97q16 49 16 105q0 30 -4 61q-11 74 -53 301l-21 111q-1 0 -19 -42t-44 -104t-35 -84q-94 -224 -119 -364zM911 -18q1 1 6.5 8t16 21t20.5 26q150 195 234.5 331.5 t148.5 282.5q45 106 74.5 208t32.5 165v11q0 44 -15 79q-17 38 -47 51q-15 6 -30 6q-20 0 -39 -10q-64 -33 -123 -141q-48 -97 -102 -279q-43 -153 -95 -399q-39 -183 -67 -303z" />
<glyph unicode="g" horiz-adv-x="1918" d="M129 -1960q0 59 16 139q34 170 88.5 279t155.5 209q67 62 203 166q75 55 160 112q91 63 112 70q7 7 15 33q2 7 5.5 15.5t5 13t1.5 5.5q0 3 -10 -4q-94 -54 -195 -69q-22 -3 -69.5 -3t-69.5 3q-158 21 -258 102q-134 109 -158 324q-2 30 -2 57q0 40 4 72q21 141 127 274 q18 23 51 55.5t56 49.5q141 117 305 129q20 2 42.5 2t47.5 -2q7 -1 26.5 -3t24.5 -3q205 -39 305 -185q9 -10 10 -10q25 104 43 158q12 21 31 28q26 10 49 0q24 -12 31 -30q8 -14 6.5 -30.5t-16.5 -72.5q-72 -282 -172 -600q-55 -181 -72 -223q-1 -3 30 13t72.5 39t69.5 40 q264 169 465 408q29 34 41.5 42.5t32.5 8.5q18 0 28 -6q33 -16 33 -56q0 -15 -6.5 -26.5t-28.5 -38.5q-261 -311 -585 -488l-24 -12l-46 -23t-47 -24l-92 -45l-21 -57q-164 -461 -295 -779q-47 -118 -98.5 -187t-116.5 -101q-53 -27 -100 -27h-10q-36 3 -74 18 q-84 43 -115 140q-12 42 -12 100zM254 -1960q0 -39 4 -51q13 -55 49 -74q16 -8 33 -8q22 0 47 14q82 43 154 226q115 281 260 675l2 9l-12 -9q-2 -2 -10 -7.5t-16.5 -11.5t-14.5 -11q-88 -59 -172 -129q-147 -117 -210 -218.5t-98 -277.5q-16 -74 -16 -127zM264 -602 q23 -117 95 -182t198 -82q17 -3 57.5 -3t57.5 3q109 18 211 98q17 12 45 41t35 39q12 16 90 287q3 12 8 29q7 25 7 34q0 3 -1 4q0 2 -1 6.5t-2.5 11t-2.5 11.5q-18 93 -78 153q-74 74 -199 95q-37 6 -69 6q-18 0 -35 -2q-79 -8 -139 -39q-88 -43 -162 -124t-103 -167 q-21 -60 -21 -127q0 -44 9 -92z" />
<glyph unicode="h" horiz-adv-x="1896" d="M121 -410q0 14 6 27t33 51q28 44 33 49q3 3 20 121q86 605 162 918q87 342 217 463q62 59 135 75q16 3 32 4q25 0 52 -8q34 -10 68 -33q75 -56 94 -159q4 -23 3 -55q0 -21 -1 -46q-16 -167 -121 -409q-136 -308 -483 -828l-54 -82l-8 -57l-8 -59q20 37 43 84 q14 26 34 64.5t23 43.5q65 117 144 186t194 107q93 33 170 33q46 0 86 -12q62 -15 115 -68q74 -79 74 -191q0 -19 -2 -40q-7 -79 -74 -258q-34 -93 -45.5 -142t-11.5 -94q0 -37 4 -51q10 -42 32 -64q25 -25 66 -25q14 0 29 3q94 16 178 82q71 54 152 159t139 218 q18 33 31 44t36 11q19 0 29 -6q33 -16 33 -56q0 -14 -17 -49q-59 -117 -148.5 -233t-168.5 -180q-113 -89 -232 -113q-25 -4 -61 -4q-57 0 -94 18q-30 14 -64 45q-71 77 -71 203v10q5 94 67 269q7 18 16 42.5t15 41t8 22.5q29 89 29 144.5t-29 95.5q-40 53 -120 53 q-57 0 -134 -27q-100 -34 -163.5 -95t-127.5 -187q-117 -227 -133 -262q-59 -123 -100 -281q-12 -57 -27 -72q-23 -19 -53 -14t-43 31q-7 14 -7 29.5t7 82.5q18 187 39 340l4 29l-10 2q-41 16 -41 59zM358 -31q4 0 136 215q161 267 245 453q71 156 103 315q8 46 8 83 q0 52 -16 85q-13 30 -43 45q-14 7 -29 7q-36 0 -76 -37q-81 -66 -145 -261q-56 -164 -111 -481q-11 -57 -29 -162.5t-30.5 -182.5t-12.5 -79z" />
<glyph unicode="i" horiz-adv-x="1212" d="M86 -160q11 73 53.5 139t103.5 101q44 24 94 33q19 3 38 3q86 0 171 -59q111 -75 111 -182q0 -38 -14 -80q-12 -40 -41 -87t-95 -136q-81 -109 -109.5 -159t-37.5 -99q-3 -16 -3 -31q0 -37 15 -73q21 -52 58 -68q12 -6 36 -6q30 0 50 6q86 20 168 86q68 56 145.5 158 t134.5 211q17 32 31 43.5t37 11.5q40 0 55 -35q6 -10 6 -27q0 -16 -16 -49q-60 -118 -149 -233t-169 -178q-83 -68 -181 -100q-63 -20 -115 -21q-28 0 -52 6q-75 20 -124.5 90t-53.5 164v8q0 102 70 221l18 29q-4 2 -10 2q-20 0 -72 25q-106 52 -141 157q-14 44 -14 95 q0 16 2 34zM208 -211q9 -98 113 -135q15 -3 25 -8q22 -17 26 -31l4 -8q1 1 101 135q53 83 53 129q0 21 -6 33q-10 23 -40.5 45t-64.5 33q-23 8 -43 8q-15 0 -28 -4q-60 -12 -102 -72q-38 -53 -39 -111q0 -7 1 -14zM538 455v8q0 42 28 79q31 40 79 52q14 2 28 2q20 0 37 -4 q30 -8 57 -35q26 -23 35 -57q6 -21 6 -40.5t-6 -37.5q-12 -34 -32 -57q-37 -37 -95 -37t-98 37q-36 39 -39 90zM664 456q3 -6 9 -5q3 0 7 3.5t4 6.5q0 6 -5 6q-2 4 -5.5 3.5t-6.5 -3.5q-4 -3 -4 -7q0 -2 1 -4z" />
<glyph unicode="j" horiz-adv-x="1867" d="M82 -1960q0 58 14 135q34 173 88.5 282.5t157.5 209.5q67 62 203 166q73 54 157 112q98 66 244 137q128 62 236 130l30 20l35 53q149 217 218 351.5t75 216.5v10q0 37 -18 57q-22 22 -78 33q-20 3 -71 3t-83 -3q-80 -9 -118 -19.5t-68 -31.5q-24 -15 -46.5 -42.5 t-33.5 -54.5q-19 -44 -19 -87q0 -48 23 -95q8 -16 8 -33q0 -18 -6 -28q-12 -23 -35.5 -31t-46.5 4q-13 6 -19.5 13.5t-15.5 27.5q-33 69 -33 141q0 55 19 111q10 39 47 92q12 18 35 42t41 36q54 37 111 55q77 20 178 27q32 2 61.5 2t57.5 -2q159 -15 212 -117q22 -43 22 -99 q0 -82 -46 -194q-10 -26 -68 -139l-4 -12q31 31 76 86q32 37 45 43q9 4 24.5 4t24.5 -4q25 -10 34 -34q5 -12 5 -23q0 -13 -6 -25q-10 -23 -93 -111.5t-149 -148.5q-93 -84 -192 -154q-12 -8 -43 -53q-7 -9 -45.5 -63.5t-61.5 -86.5q-215 -303 -307.5 -440t-165.5 -260 q-62 -101 -110 -203q-33 -76 -59 -116.5t-60 -73.5q-64 -61 -139 -72q-15 -2 -30 -2q-59 0 -110 35q-78 53 -100 164q-2 12 -2 59zM207 -1958q0 -39 4 -51q12 -47 41 -69q20 -15 43 -15q12 0 24 4q69 19 119 123q26 51 29 61q71 156 233 406q198 292 326 467q2 4 5.5 9 t5 7.5t1.5 3.5q-6 0 -143 -71q-101 -59 -197 -127q-129 -93 -168 -127q-147 -117 -209.5 -218.5t-97.5 -279.5q-16 -72 -16 -123zM1198 455v8q0 43 28 79q31 40 79 52q14 2 28 2q20 0 37 -4q30 -8 57 -35q26 -23 35 -57q6 -21 6 -40.5t-6 -37.5q-12 -34 -32 -57 q-37 -37 -95 -37t-98 37q-36 39 -39 90zM1324 456q3 -5 9 -5q3 0 6.5 3.5t3.5 6.5q0 6 -4 6q-3 3 -6 3t-6 -3q-4 -3 -4 -7q0 -2 1 -4z" />
<glyph unicode="k" horiz-adv-x="1794" d="M121 -410q0 14 6 27t33 51q28 44 33 49q3 3 20 121q86 605 162 918q87 342 217 463q62 59 135 75q16 3 32 4q25 0 52 -8q34 -10 68 -33q75 -56 94 -159q4 -23 3 -55q0 -21 -1 -46q-16 -167 -121 -409q-136 -308 -483 -828l-54 -82l-8 -59l-8 -59q20 37 43 84 q60 116 86 157q78 126 186 189q117 71 258 88q22 2 41 2q29 0 52 -4q63 -12 114 -52.5t82 -103.5q31 -66 31 -129q0 -56 -25 -108q-38 -75 -116 -113q-62 -32 -160 -43q-37 -4 -39 -6h-4l6 -8q22 -39 33 -70q18 -53 33 -119q20 -90 40.5 -129.5t53.5 -54.5q10 -4 35 -4 q39 0 86 16q47 18 97 51.5t89 75.5q134 140 225 318q17 32 31 43.5t37 11.5q19 0 29 -6q32 -16 32 -56q0 -16 -16 -49q-52 -100 -124.5 -200t-143.5 -168q-138 -135 -299 -160q-23 -4 -45 -4q-85 0 -146 57q-64 61 -98 207q-20 90 -31 123q-26 77 -94 112l-21 11l-41 6 q-43 4 -57.5 11.5t-23.5 27.5q-8 16 -8 30q0 22 20 39q7 11 20 15q8 4 35 4q8 0 23 -1t20 -1q41 -8 101 -8q27 0 59 2q100 6 158 24q87 27 102 96q2 12 2 24q1 36 -19 76q-26 54 -69 77q-28 12 -70 12q-52 0 -102 -14q-94 -29 -155.5 -75t-112.5 -124q-5 -7 -8 -12t-6.5 -10 t-7.5 -12t-8 -13.5t-10.5 -19t-12 -23.5t-16.5 -32t-20.5 -39.5t-26.5 -51.5t-32 -62q-51 -98 -74 -157q-39 -97 -67 -209q-12 -53 -27 -68q-23 -19 -53 -14t-43 31q-7 14 -7 29.5t7 82.5q18 187 39 340l4 29l-10 2q-41 16 -41 59zM358 -31q4 0 136 215q161 267 245 453 q71 156 103 315q8 46 8 83q0 52 -16 85q-13 30 -43 45q-14 7 -29 7q-36 0 -76 -37q-81 -66 -145 -261q-56 -164 -111 -481q-11 -57 -29 -162.5t-30.5 -182.5t-12.5 -79z" />
<glyph unicode="l" horiz-adv-x="1175" d="M120 -420q-1 7 -1 13q0 12 4 20q1 3 5.5 9.5t12 18.5t13.5 21q9 13 17.5 26.5t13.5 20.5t10 14.5t7 11t4.5 7t3.5 6t1.5 5t1.5 5.5q32 172 68 451q20 171 43 313q71 413 190 604q92 143 211 168q16 3 32 4q25 0 52 -8q34 -10 68 -33q75 -56 94 -159q4 -23 3 -55 q0 -21 -1 -46q-16 -167 -121 -409q-129 -290 -477 -819l-47 -72l-4 -27q-31 -153 -31 -256q0 -37 4 -67q12 -76 39.5 -133t62.5 -74q10 -4 35 -4q50 0 114 28.5t118 75.5q64 55 138 154.5t128 202.5q17 32 31 43.5t37 11.5q40 0 55 -35q6 -10 6 -27q0 -16 -16 -49 q-60 -117 -149 -232.5t-167 -178.5q-104 -84 -213 -109q-47 -11 -85 -11q-50 0 -87 19q-72 37 -117 125q-43 81 -55 189q-4 31 -4 82v13q0 60 6 85q0 6 -4 6q-6 0 -19 6.5t-18 11.5q-10 13 -13 33zM381 8q2 1 20.5 30.5t47 76t43.5 69.5q161 267 245 453q73 169 103 315 q8 46 8 83q0 52 -16 85q-13 30 -43 45q-14 7 -29 7q-36 0 -76 -37q-100 -81 -178 -367q-53 -184 -102 -584q-4 -29 -9.5 -69.5t-8.5 -62t-3 -25.5q-1 -3 -1 -6.5t-0.5 -6t-0.5 -3.5v-3z" />
<glyph unicode="m" horiz-adv-x="2934" d="M131 -410q0 17 16 48q42 87 105 176t125 151q65 65 127 88q35 12 70 12q38 0 74 -15q70 -29 104 -101q17 -35 20 -82l2 -27l17 23q98 125 262 182q56 19 104 27q34 6 67 6t64 -6q90 -19 144 -76q51 -54 57 -131l2 -23l14 21q15 21 47 52t52 44q127 97 305 119q9 2 24 2 q10 0 23 -1q32 -2 49 -5q124 -25 182 -135q30 -58 29 -133q0 -67 -23 -148q-17 -59 -51 -147q-34 -93 -45.5 -142t-11.5 -94q0 -37 4 -51q10 -41 33 -64q19 -19 39.5 -23.5t54.5 1.5q94 16 178 82q71 54 152 159t139 218q17 32 31 43.5t37 11.5q18 0 28 -6q33 -16 33 -56 q0 -16 -16 -49q-59 -117 -149 -233t-169 -180q-113 -89 -231 -113q-25 -4 -62 -4q-57 0 -94 18q-28 13 -63 45q-72 78 -72 203v10q5 94 67 269q63 169 68 241v8q0 80 -55 121q-39 28 -98 28q-37 0 -82 -11q-102 -28 -168.5 -76t-120.5 -133q-32 -50 -86 -158 q-27 -59 -74 -149q-33 -62 -41 -93q-86 -265 -100 -290q-14 -27 -51 -27q-17 0 -27 6q-19 7 -31 31q-7 14 -4.5 30t16.5 54q69 203 123 381q27 98 48.5 199.5t21.5 134.5q0 54 -55 81q-37 18 -86 18q-54 0 -121 -22q-93 -31 -155.5 -85.5t-119.5 -153.5q-13 -18 -92 -180 l-76 -152l-24 -74q-58 -180 -80 -235q-1 -2 -6 -8.5t-6 -8.5q-19 -17 -41 -17q-14 0 -29 7q-19 7 -31 31q-7 13 -4 31t23 73q39 113 49 146q59 178 85.5 276t41.5 191q10 56 10 87q0 13 -2 21q-7 35 -34 51t-60 7q-37 -11 -86 -60q-52 -52 -109.5 -134.5t-97.5 -162.5 q-15 -29 -29 -40t-36 -11q-17 0 -27 6q-35 15 -35 55z" />
<glyph unicode="n" horiz-adv-x="2217" d="M131 -410q0 17 16 48q42 87 105 176t125 151q65 65 127 88q38 12 73 12q57 0 105 -32q84 -59 90 -166l2 -25l14 21q15 21 47 52t52 44q127 97 305 119q9 2 24 2q10 0 23 -1q32 -2 49 -5q124 -25 182 -135q30 -59 30 -135q0 -67 -23 -146q-14 -48 -52 -147 q-34 -93 -45.5 -142t-11.5 -94q0 -37 4 -51q10 -41 33 -64q19 -19 39.5 -23.5t54.5 1.5q94 16 178 82q71 54 152 159t139 218q17 32 31 43.5t37 11.5q18 0 28 -6q33 -16 33 -56q0 -16 -16 -49q-59 -117 -149 -233t-169 -180q-113 -89 -231 -113q-25 -4 -62 -4q-57 0 -94 18 q-28 13 -63 45q-72 78 -72 203v10q3 54 17 109t51 160q62 166 67 241v8q0 80 -55 121q-39 28 -98 28q-37 0 -82 -11q-102 -28 -168.5 -76t-120.5 -133q-32 -50 -86 -158q-27 -59 -74 -149l-30 -62l-27 -80q-74 -225 -82 -239q-16 -29 -53 -29q-17 0 -27 6q-19 7 -31 31 q-7 13 -4 31t23 73q2 5 92 279q63 205 84 334q10 56 10 87q0 13 -2 21q-7 35 -34 51t-60 7q-37 -11 -86 -60q-52 -52 -109.5 -134.5t-97.5 -162.5q-15 -29 -29 -40t-36 -11q-17 0 -27 6q-35 15 -35 55z" />
<glyph unicode="o" horiz-adv-x="1818" d="M129 -496q3 51 15 103q36 152 157 276q157 164 365 189q10 1 28 1q14 -1 33 -1q44 -2 62 -4q7 0 18 -1t12 -1h37q41 0 90 -21q85 -45 156 -151q53 -77 78 -164q20 -70 20 -139q0 -73 -22 -146l-6 -16h16q108 0 203 45q105 48 168 120q20 25 28 33q22 25 50 25q18 0 28 -6 q33 -16 33 -56q0 -24 -25 -53q-15 -19 -44.5 -49t-47.5 -43q-122 -100 -268 -129q-57 -10 -137 -10h-64l-8 -15q-53 -80 -130.5 -145.5t-160.5 -99.5q-99 -41 -203 -41q-46 0 -92 8q-188 31 -282 151q-54 65 -82 155q-26 81 -25 167v18zM264 -602q23 -116 92 -180t193 -84 q22 -3 62.5 -3t60.5 3q109 18 211 98q53 42 84 82l12 16l-18 6q-75 21 -125 58q-130 82 -178 274q-21 79 -21 147q0 28 4 54q10 42 23 70l4 8l-16 -4q-124 -21 -234 -119q-46 -42 -85 -98.5t-56 -108.5q-22 -62 -22 -130q0 -43 9 -89zM764 -194.5q0 -34.5 4 -59.5 q22 -115 64.5 -177.5t120.5 -96.5q16 -7 49.5 -17t38.5 -10q3 0 12 23q21 63 21 125q0 118 -76 231q-67 102 -125 115q-11 3 -21 3q-24 0 -44 -16q-28 -22 -40 -67q-4 -19 -4 -53.5z" />
<glyph unicode="p" horiz-adv-x="2426" d="M82 -1526q0 279 102 531q70 173 183.5 321.5t259.5 261.5q19 16 26 31q6 11 12.5 16.5t32.5 22.5q98 64 136 174q10 28 22 102q3 33 8 64q27 142 133 166q9 2 27 2h9q25 -1 38 -4q6 -2 31 -12q45 -23 72 -76l8 -19q10 2 22 4q61 12 121 12q69 0 136 -16q125 -30 208 -108 q61 -60 96.5 -149t40.5 -193v-17q0 -185 -129 -348l-18 -22q1 0 23 9.5t52.5 22.5t45.5 19q251 117 395 328q23 35 35.5 45t34.5 10q18 0 28 -6q2 -1 6.5 -4.5t7.5 -5.5t5 -3q16 -23 16 -43q0 -12 -6 -24q-17 -39 -90 -127q-49 -60 -119 -121q-72 -61 -151 -105.5 t-205 -97.5q-210 -88 -359 -108q-60 -8 -115 -8q-96 0 -180 24q-109 31 -202 105q-14 10 -23 24q-8 16 -8 30q0 23 18 42q21 18 45 18q21 0 52 -22q132 -97 295 -97q18 0 26 5q7 7 49 20q170 53 279 219q67 105 67 221q0 56 -16 115q-23 94 -79 150t-150 79q-56 13 -112 13 q-59 0 -118 -15q-14 0 -14 -4q-2 0 -6 -20q-23 -89 -101 -170q-35 -34 -68 -56.5t-91 -50.5q-115 -59 -183 -108q-107 -77 -172 -148q-264 -273 -338 -645q-26 -131 -26 -259q0 -202 65 -398q28 -87 68 -162l20 -43v-16q0 -19 -6 -29q-12 -23 -36 -31q-9 -3 -18 -3 q-14 0 -28 7t-20 13q-14 18 -49 100q-121 272 -121 567zM985 -42.5v-2.5q3 0 19 12q23 20 55 39l6 4l-6 10q-3 7 -10 15q-6 5 -17 5q-2 1 -3 1q-10 0 -15 -4q-17 -10 -27 -68q-1 -3 -1.5 -6t-0.5 -5.5z" />
<glyph unicode="q" horiz-adv-x="1918" d="M130 -565q-2 30 -2 57q0 40 4 72q21 141 127 274q18 23 51 55.5t56 49.5q141 117 305 129q20 2 42.5 2t47.5 -2q161 -15 279 -107q44 -35 69 -71l13 -17l2 6q0 2 3 12t9 28t10 34q22 68 25 74q15 20 30 26q27 10 50 0q23 -12 30 -30q8 -14 7 -28t-13 -50 q-103 -334 -297 -789l-39 -90q0 -2 23 10q14 7 59 25q14 6 64 25q110 47 202 116q181 138 365 342q40 45 53 54.5t33 9.5q19 0 29 -6q32 -16 32 -56q0 -17 -7 -29t-36 -44q-106 -121 -228 -232t-218 -176q-97 -63 -217 -108q-66 -26 -98 -45.5t-54 -47.5q-47 -58 -47 -148 v-11q3 -68 43 -226q22 -81 29 -118q16 -82 16 -153q0 -32 -3 -62q-11 -97 -60 -193q-38 -75 -94 -131q-60 -60 -127 -78q-16 -4 -52 -4q-49 0 -84 18q-43 18 -83 72q-46 68 -46 168q0 61 17 133q25 108 84 261t203 483l49 112q0 1 -4.5 0t-12.5 -4q-11 -3 -82 -18 q-25 -3 -74.5 -3t-74.5 3q-172 26 -272 123q-115 109 -136 303zM263 -602q22 -106 80.5 -167.5t159.5 -86.5q58 -14 113 -14q93 0 176 41q30 15 72 45q9 7 101.5 239t92.5 246q0 3 -4 27q-39 134 -182 190q-33 14 -88 25q-37 6 -70 6q-18 0 -35 -2q-79 -8 -139 -39 q-88 -43 -161.5 -124t-102.5 -167q-22 -62 -22 -130q0 -43 9 -89zM560 -1995q13 -71 60 -92q11 -6 26 -6q12 0 27 4q35 10 72.5 51.5t66.5 102.5q45 87 45 191v13q-2 62 -43 234q-30 113 -39 172l-2 12q-2 0 -51 -119q-119 -283 -151 -428q-14 -58 -14 -100q0 -19 3 -35z " />
<glyph unicode="r" horiz-adv-x="1705" d="M136 -434q-5 13 -5 25q0 20 13 38q11 15 41 25q74 21 119 88q35 54 35 126q0 16 -2 32q-4 33 -4 63q0 89 36 150q6 9 23 26q27 27 57 33q10 2 19 2q29 0 57 -14q62 -32 68 -97v-5q0 -30 -19 -85q-16 -52 -12 -61q6 -6 12 -6q19 0 82 24q86 31 133 32q4 0 8 -1 q33 -2 64 -16q30 -13 55 -41q40 -41 58 -107q13 -48 14 -99q0 -20 -2 -40q-8 -80 -64 -225q-45 -117 -53 -174q-3 -18 -3 -34q0 -32 13 -50q28 -41 82 -41h8q104 9 209 94q68 57 146 160t133 209q18 33 31 44t36 11q19 0 29 -6q33 -16 33 -56q0 -14 -17 -47 q-74 -150 -198 -297q-59 -70 -119 -118q-75 -62 -152 -89q-78 -30 -141 -30q-37 0 -69 10q-43 13 -76.5 43.5t-52.5 71.5q-20 40 -20 95q0 44 13 97q10 40 50 146q53 138 59 215v12q-1 41 -13 76q-14 40 -38 55q-15 9 -37 5.5t-82 -25.5q-79 -27 -111 -29h-8q-57 0 -96 39 l-14 12q-3 0 -3 -16q-4 -36 -20 -76q-26 -71 -81.5 -125t-129.5 -80q-20 -6 -36 -6.5t-27 6.5q-19 7 -31 31z" />
<glyph unicode="s" horiz-adv-x="1501" d="M146 -776q21 18 46 18q21 0 55 -22q129 -90 280 -105l21 -2l10 8q12 12 23 15.5t43 3.5q39 0 55 4q62 22 78 86q5 15 5 42q0 14 -1 30q-6 51 -28.5 112.5t-49.5 102.5q-23 34 -94 100q-64 59 -89 88t-42 64l-8 18l-5 -16q-22 -72 -72.5 -132t-117.5 -92 q-38 -16 -54.5 -18t-35.5 6q-19 7 -31 31q-10 23 0 49q5 10 16 20t21 13q30 12 51 24q73 45 101 127q10 30 12 117q0 76 2 90q7 41 27 86q13 26 28 41q19 19 33 25q5 2 15 5.5t12 4.5q11 2 21 2q27 0 57 -14q40 -18 57 -52q12 -26 12 -55q-1 -5 -1 -11q-2 -35 -23 -101 q-17 -52 -17 -76q3 -29 26 -60t85 -88q69 -64 97 -99t56 -91q34 -75 52 -153q13 -58 13 -104q0 -16 -1 -30q-5 -46 -15 -61q-2 -2 -2 -6q2 -2 74 38q63 46 133 129q108 134 172 256q21 36 34 48t36 12q19 0 29 -6q23 -12 31 -36q3 -9 2 -18q0 -14 -7 -28q-51 -110 -151 -244 q-88 -122 -168 -184q-98 -80 -234 -119q-109 -31 -218 -31q-41 0 -82 4q-151 16 -283 88q-24 12 -56 33.5t-39 28.5q-14 19 -14 42q0 24 18 42z" />
<glyph unicode="t" horiz-adv-x="1280" d="M121 -410q0 14 6 26t29 44q105 142 192 297q19 30 33 80q8 29 23.5 78t19.5 63q5 21 28 92.5t25 75.5q0 2 -104 2l-105 2l-12 4q-34 19 -34 56.5t34 56.5l12 6h125l127 2l27 72q112 306 248 606q52 113 57 119q14 14 35 18q5 1 10 1q15 0 31 -7q33 -16 33 -55 q0 -14 -11 -39q-148 -314 -278 -664q-13 -43 -19 -49q0 -4 183 -4h184l10 -6q26 -14 32.5 -44t-13.5 -52q-2 -4 -10 -10t-9 -7l-10 -4l-191 -2q-188 0 -188 -2q12 -24 12 -39q0 -16 -12 -45q-54 -126 -135 -280l-23 -41l-14 -52q-82 -302 -131 -557q-6 -38 -5.5 -66t5.5 -46 q11 -38 41 -63t74 -31q11 -2 25 -2q32 0 78 11q64 15 122 44q82 43 139 106q124 134 217 305q20 38 33.5 50t36.5 12q19 0 29 -6q32 -16 32 -56q0 -20 -28 -69q-77 -145 -183 -269q-23 -29 -58.5 -65t-55.5 -51q-111 -87 -252 -123q-54 -12 -109 -12q-59 0 -100 14 q-69 25 -114.5 80.5t-55.5 130.5q-1 20 -1 38q0 37 5 70q5 37 39 193q14 68 14 72q-8 -11 -18 -25q-4 -5 -8.5 -11t-6 -8.5t-4.5 -6t-4 -4.5t-3 -2.5t-4 -2.5l-4 -2t-5 -2q-10 -6 -27 -6q-26 0 -43.5 17.5t-17.5 43.5z" />
<glyph unicode="u" horiz-adv-x="2031" d="M84 -213v12q0 75 35 146q34 66 89.5 110t121.5 56q23 3 44 3q45 0 85 -14q42 -13 88 -43q71 -50 92 -106q15 -36 15 -78q0 -45 -15 -86q-15 -42 -42.5 -86t-94.5 -133q-97 -131 -121 -184q-27 -55 -27 -103q0 -39 17 -74q28 -58 92 -77q22 -6 46.5 -6t53.5 6 q160 35 293 157q79 70 195 230q60 83 78 118q1 2 3.5 9.5l7.5 22.5t9 26q54 166 119 305q13 31 27 45q18 18 43 18q26 0 43.5 -17.5t17.5 -43.5q0 -16 -18 -57q-56 -122 -80 -193l-11 -26l5 -9q2 -6 2 -22q0 -20 -31 -72l-21 -37l-12 -41q-33 -131 -49 -217q-4 -32 -4 -57 q0 -31 6 -51q20 -84 99 -84h5q47 3 104 28.5t107 65.5q68 55 146 157t135 212q17 32 31 43.5t37 11.5q18 0 28 -6q33 -16 33 -56q0 -16 -8 -34q-57 -116 -151 -239t-175 -187q-77 -64 -169 -97q-69 -25 -127 -25q-19 0 -36 3q-61 10 -107.5 52.5t-68.5 107.5q-12 40 -12 102 q-1 42 -4 41q-13 -13 -23 -25q-164 -193 -370 -262q-82 -28 -151 -28q-94 0 -165 51q-87 62 -110 176q-4 28 -4 56t4 56q16 83 78 175l8 14q-4 2 -10 2q-14 0 -29 6q-119 44 -166 139q-28 55 -31 113zM219 -137q-11 -33 -11 -63q0 -46 26 -85q27 -40 100 -67q10 -3 21 -13 t16 -20l4 -8q1 0 38.5 50.5t53.5 74.5q49 69 62 118q2 9 2 18q0 36 -27 62q-45 45 -90 54q-16 6 -40 6q-13 0 -28 -2q-27 -6 -63 -33q-44 -38 -64 -92z" />
<glyph unicode="v" horiz-adv-x="2039" d="M87 -252q-4 27 -4 53q0 31 6 60q17 77 62.5 138t109.5 93q39 17 76 25q18 3 37 2q30 0 61 -6q82 -18 152 -82q66 -66 66 -155q0 -36 -11 -75q-17 -66 -88 -194q-73 -135 -86 -174q-14 -48 -17 -88q0 -3 -1 -6q0 -49 16 -97q16 -52 45 -80q19 -24 45 -26h10q27 0 80 10 q190 36 303 119q219 167 240 516q2 32 -2 59q-9 65 -9 129q1 37 5 49.5t16 24.5q20 20 42 20q12 0 25 -6q24 -12 31 -28q5 -10 10 -47q9 -71 9 -127q0 -31 6 -54q34 -134 106 -219q32 -38 76 -47q15 -3 34 -3q34 0 75 11q94 23 188 86q27 16 34.5 19.5t20.5 3.5q19 0 29 -6 q19 -11 29 -31q5 -13 5 -25q0 -22 -16 -41q-8 -12 -77 -53q-74 -41 -151.5 -65.5t-135.5 -24.5q-40 0 -78 10q-37 11 -76 37q-41 28 -86 92q-15 23 -16 23l-10 -31q-15 -57 -52 -129q-55 -113 -135 -190q-151 -145 -411 -193q-71 -14 -112 -14h-5q-41 1 -78 20 q-32 14 -63 45q-32 40 -50 76q-42 85 -42 176q0 62 20 127q14 53 92 197q57 106 72 143q18 44 18 78q0 35 -20 59q-15 22 -58 41q-39 21 -75 21q-47 0 -89 -35q-35 -27 -56 -71t-21 -87q0 -109 118 -147q28 -10 39 -21q17 -17 17 -43q0 -23 -19 -45q-18 -16 -43 -16 q-12 0 -26 4q-35 11 -72 31q-111 63 -135 184z" />
<glyph unicode="w" horiz-adv-x="2521" d="M121 -637v22q0 179 62 333q66 163 192 270q30 27 62.5 48.5t46.5 24.5q6 1 12 1l28 -6q20 -10 29 -29q4 -16 4 -27q0 -35 -37 -59q-24 -12 -73 -56q-121 -109 -172 -280q-30 -106 -30 -214q0 -60 9 -120q17 -114 74 -141q21 -10 50 -10q51 0 128 30q198 76 326 242 q16 20 18 37q23 102 72 260q40 124 115 301q19 42 28 53q21 18 45 18q26 0 44 -17.5t18 -43.5q0 -14 -19 -57q-103 -229 -164 -480q-26 -103 -33 -151q-3 -22 -3 -42q0 -22 4 -40q4 -24 22 -51q26 -38 76 -49q22 -6 47.5 -6t54.5 6q101 21 213 96q163 108 230 250 q60 126 69 309q1 12 1 24q0 24 -3 48q-4 29 -4 96q0 62 4 72q10 21 33 32q13 5 25.5 5t23.5 -5q24 -12 31 -28q5 -11 8 -43q8 -57 8 -123q0 -35 21 -105q35 -105 94 -176q32 -38 76 -47q15 -3 33 -3q33 0 75 11q95 23 189 86q27 16 34.5 19.5t20.5 3.5q19 0 29 -6 q18 -10 28 -31q5 -13 5 -26q0 -21 -15 -40q-7 -11 -78 -53q-74 -41 -151 -65.5t-135 -24.5q-40 0 -78 10q-37 11 -76 37q-41 27 -88 96l-14 23l-9 -29q-39 -135 -112 -233q-78 -104 -205.5 -188.5t-245.5 -110.5q-52 -13 -99 -13q-115 0 -192 78q-46 43 -65 111l-6 20 l-21 -18q-77 -68 -178.5 -119.5t-191.5 -68.5q-30 -6 -61 -6q-25 0 -52 4q-90 22 -139 92q-62 88 -68 272z" />
<glyph unicode="x" horiz-adv-x="2013" d="M137 -375q34 112 99 195q112 152 288 219q105 43 191 43q45 0 84 -12q47 -11 84 -41q80 -61 108 -172l6 -23l7 10q30 49 73 109q85 116 197 131q24 4 47 4q28 0 53 -6q62 -13 107 -45q28 -19 57 -52.5t41 -60.5q12 -23 4 -47.5t-33 -34.5q-23 -12 -47 -3.5t-37 34.5 q-36 65 -108 84q-20 5 -41 5l-41 -5q-53 -16 -109 -94q-70 -95 -168 -283q-38 -81 -38 -82q-23 -106 -23 -166q0 -43 4 -63q31 -126 152 -156q18 -4 59 -4t59 4q167 32 317.5 164t235.5 320q13 32 27.5 43.5t38.5 11.5q19 0 29 -6q32 -16 32 -56q0 -16 -8 -36 q-67 -147 -162 -259q-49 -56 -120 -122q-118 -98 -256 -152q-102 -39 -191 -39q-45 0 -88 10q-89 19 -153 80.5t-89 151.5l-6 18l-6 -12q-8 -15 -37.5 -56t-34.5 -48q-88 -117 -200 -134q-19 -2 -37 -2q-89 0 -166 52q-28 19 -57 52t-41 60q-12 23 -3.5 47.5t33.5 36.5 q24 10 52 0q17 -10 30 -33q36 -65 109 -84q20 -5 41 -5l41 5q29 9 53 30t55 65q70 95 162 272q22 41 27 53t10 35q27 103 27 178q0 39 -5 64q-14 61 -53 100q-27 27 -61 35q-21 4 -42 4q-26 0 -54 -6q-145 -31 -252 -123.5t-148 -224.5q-16 -46 -24 -56q-14 -14 -33.5 -17.5 t-36.5 3.5q-24 12 -31 31q-5 10 -5 25.5t5 35.5z" />
<glyph unicode="y" horiz-adv-x="2029" d="M84 -213v12q0 75 35 146q34 66 89.5 110t121.5 56q23 3 44 3q45 0 85 -14q42 -13 88 -43q71 -50 92 -106q15 -36 15 -78q0 -45 -15 -86q-15 -42 -42.5 -86t-94.5 -133q-97 -131 -121 -184q-27 -55 -27 -103q0 -39 17 -74q28 -58 92 -77q21 -6 46 -6t54 6q160 35 293 157 q73 67 160 182t152 232q17 30 24 37l10 10l21 76q35 120 39 137q4 13 9 30.5t7.5 26.5t3.5 11q12 21 31 28q26 10 49 0q24 -12 31 -30q8 -13 6 -32t-20 -81q-115 -422 -232 -768q-14 -47 -14 -49q1 0 23 10.5t52 26.5t48 26q142 82 276 196t244 245q29 34 41.5 42.5 t32.5 8.5q18 0 28 -6q33 -16 33 -56q0 -15 -6.5 -26.5t-28.5 -38.5q-206 -243 -461 -412q-105 -69 -245 -137l-95 -47l-2 -8l-4 -11q-4 -12 -9 -26.5t-9 -28.5q-154 -437 -270 -723q-64 -164 -127 -239q-92 -111 -202 -111h-11q-36 3 -74 18q-84 43 -115 140q-12 42 -12 100 q0 59 16 139q34 170 88.5 279t155.5 209q67 62 203 166q144 107 235 161l35 21l35 104l74 230l-13 -13q-58 -76 -139 -149q-127 -115 -270 -160q-82 -28 -151 -28q-94 0 -165 51q-87 62 -110 176q-4 28 -4 56t4 56q16 83 78 175l8 14q-4 2 -10 2q-14 0 -29 6 q-119 44 -166 139q-28 55 -31 113zM219 -137q-11 -33 -11 -63q0 -46 26 -85q27 -40 100 -67q10 -3 21 -13t16 -20l4 -8q1 0 38.5 50.5t53.5 74.5q49 69 62 118q2 9 2 18q0 35 -27 62q-45 45 -90 54q-17 6 -40 6q-13 0 -28 -2q-27 -6 -63 -33q-44 -38 -64 -92zM365 -1960 q0 -39 4 -51q13 -55 49 -74q16 -8 33 -8q22 0 47 14q76 42 139 189q32 74 107 270.5t135 364.5q6 18 14 39.5t11.5 31t3.5 10.5q-7 -4 -11 -6q-2 -2 -15.5 -11.5t-21.5 -16.5q-88 -59 -172 -129q-147 -117 -209.5 -218t-97.5 -278q-16 -74 -16 -127z" />
<glyph unicode="z" horiz-adv-x="1804" d="M120 -1892q21 149 69 276q70 185 246 336q74 67 172 129q7 6 9.5 7t3 5.5t-1 7t-5.5 11.5q-18 35 -55 47q-17 6 -57 12q-64 15 -88 27q-46 22 -64 63q-14 29 -14 70q0 29 4 45q19 49 59 68q28 17 57 20.5t124 5.5q116 2 145 14q29 15 54 46.5t69 105.5q31 55 47 82 q48 82 63 152q5 23 5 57t-5 59q-21 84 -81 135q-70 62 -168 62q-47 0 -101 -14q-121 -34 -219 -132q-87 -87 -131 -211q-9 -33 -23 -49q-20 -18 -41 -18q-12 0 -26 6q-24 12 -31 31q-6 10 -6 25q0 19 10 46q35 103 99 189q77 103 187 169t228 79q29 3 56 3q123 0 221 -69 q19 -12 46.5 -39.5t39.5 -46.5q29 -42 47 -90q26 -68 26 -139q0 -73 -28 -148q-42 -100 -139 -256q-67 -106 -144 -145q-36 -17 -68.5 -22.5t-125.5 -6.5q-103 -3 -109 -4q-16 -4 -16 -6q-2 0 -2 -10q2 -10 10 -15q7 -4 72 -18q51 -10 90 -27q63 -34 90 -92q7 -8 8 -8 q22 10 217 141q207 144 393 312q33 29 90.5 86t90.5 94q70 77 79 82q30 11 56 -2q33 -16 33 -56q0 -15 -6.5 -27t-30.5 -40q-263 -294 -637 -553q-18 -13 -110.5 -74t-115.5 -76l-24 -14v-10q14 -104 14 -213q-3 -94 -21.5 -173.5t-64.5 -193.5q-62 -160 -98.5 -229.5 t-81.5 -116.5q-86 -88 -181 -88h-12q-34 3 -73 18q-47 23 -80 70t-45 109q-4 28 -4 60.5t4 68.5zM245 -1901q-4 -34 -4 -59q0 -31 6 -51q19 -76 78 -82h4q64 0 127 94q35 48 90 187q76 185 94 278q12 65 12 141q0 28 -2 58q-4 46 -4 51v8l-29 -18q-118 -87 -188 -165 t-108 -167q-47 -107 -76 -275z" />
<glyph unicode="{" horiz-adv-x="862" d="M98 0q0 55 25.5 99t71.5 69q32 17 69.5 26t128.5 21q47 7 55 10t19 15q80 102 43 262q-26 97 -84 170l-57 57q-35 31 -58 59q-60 72 -92 166t-29 191q2 63 27 145q20 65 66 131q134 200 348 269q5 2 12 4t12 3.5t7 2.5q20 3 40 -6q17 -7 29 -31q16 -37 -12 -68 q-15 -12 -55 -24q-32 -13 -64 -27q-68 -35 -90 -57q-31 -36 -51 -78q-52 -107 -38 -228t89 -210q23 -29 59 -62q54 -54 58 -59q93 -110 114 -254q3 -26 3 -78.5t-3 -83.5q-12 -84 -30 -135q-45 -137 -176 -180q-24 -10 -35 -19q-26 -21 -60 -37q-70 -32 -98 -18q-8 5 -19 15 t-12 14q-2 2 -18 -2q-52 -11 -64 -39q-4 -10 -4 -33t4 -33q12 -28 64 -39q16 -4 18 -2q1 4 12 14t19 15q28 14 98 -18q34 -16 60 -37q11 -9 35 -19q91 -30 139 -104q50 -72 67 -211q3 -31 3 -83t-3 -77q-21 -146 -114 -256q-4 -5 -58 -59q-46 -44 -68 -72.5t-42 -65.5 q-48 -98 -40.5 -208.5t68.5 -200.5q13 -21 22.5 -30.5t33.5 -24.5q59 -39 121 -60q40 -12 55 -24q28 -32 10 -70q-7 -19 -31 -31q-19 -9 -63 4q-219 70 -352 271q-25 35 -48 87.5t-32 94.5q-26 118 3.5 239t104.5 212q23 28 58 59q49 49 57 59q58 70 84 168q37 160 -43 262 q-11 12 -19 15t-55 10q-91 12 -128.5 21t-69.5 26q-46 25 -71.5 69t-25.5 99zM326 1034q9 -48 43 -110q15 -27 32.5 -48t63.5 -67q71 -71 98 -117q33 -54 43 -86l8 -14q0 5 -8 34.5t-14 43.5q-14 39 -47 84q-12 15 -72 75q-73 73 -100 119q-24 34 -39 78q-7 15 -8 14 q-1 0 0 -6zM326 -1038l4 6l2 4q9 28 41 80q27 46 100 119q68 68 98 116q22 39 37 90q6 21 6 31l-8 -16q-17 -46 -51 -97q-27 -44 -90 -104l-57 -57q-56 -68 -78 -154q-4 -15 -4 -18z" />
<glyph unicode="|" horiz-adv-x="430" d="M152 -1655v3312l4 10q17 27 45 33q19 5 38.5 -4.5t28.5 -28.5l6 -10v-3312l-6 -12q-20 -33 -55 -33q-37 0 -57 33z" />
<glyph unicode="}" horiz-adv-x="862" d="M117 -517q0 52 3 83q11 80 31 135q45 137 176 180q22 9 34 19q34 25 73 42t61 17q37 0 53 -29q2 -6 10 -6q31 8 53 21q15 12 21 22q6 15 6 33q0 17 -6 35q-6 8 -21 20q-22 13 -53 21q-8 0 -10 -6q-2 -2 -6 -7.5t-6 -7.5q-21 -17 -44.5 -15t-70.5 23q-34 16 -60 37 q-12 10 -34 19q-92 30 -140 104q-50 72 -67 211q-3 31 -3 83.5t3 78.5q21 144 114 254q4 5 58 59q46 44 68.5 73t41.5 67q48 96 40.5 206.5t-68.5 200.5q-13 21 -22.5 30.5t-33.5 24.5q-60 40 -120 60q-42 12 -56 24q-25 26 -13.5 61.5t46.5 43.5q15 2 53 -8 q219 -72 351 -271q55 -77 79 -182q26 -118 -3.5 -239t-104.5 -212q-25 -31 -57 -59l-58 -57q-58 -73 -84 -170q-37 -160 43 -262q11 -12 19 -15t57 -10q90 -12 127.5 -21t69.5 -26q46 -25 71 -69t25 -99t-25 -99t-71 -69q-32 -17 -69.5 -26t-127.5 -21q-49 -7 -57 -10 t-19 -15q-80 -102 -43 -262q26 -98 84 -168q4 -5 58 -59q32 -28 57 -59q60 -72 92 -166t29 -191q-2 -63 -27 -145q-21 -68 -65 -131q-132 -200 -351 -271q-46 -13 -65 -4q-24 12 -31 31q-18 38 10 70q14 12 56 24q10 4 32.5 13.5t32.5 13.5q68 37 88 57q31 37 51 80 q52 106 38 226.5t-89 211.5q-2 2 -12.5 13t-23 24t-23.5 23q-54 54 -58 59q-93 110 -114 256q-3 25 -3 77zM247 -590l6 -29q9 -35 16 -51q15 -42 47 -82q10 -15 72 -77q73 -73 100 -119q32 -52 41 -80q3 -9 5 -10l-1 12l-2 6q-22 87 -77 154l-58 57q-32 28 -57 59 q-49 58 -84 140q-1 4 -3 9.5t-3 8t-2 2.5zM247 592l8 16q15 42 51 99q28 43 90 102q54 54 58 59q54 63 77 152q4 15 3 18l-3 -6l-2 -4q-9 -28 -41 -80q-27 -46 -100 -119q-60 -60 -72 -75q-33 -45 -47 -84q-6 -14 -14 -43.5t-8 -34.5z" />
<glyph unicode="~" horiz-adv-x="2215" d="M127 -289q-7 129 6 244q15 157 79 251t187 138q81 29 154 35q67 5 129 -4q77 -13 147 -51q56 -28 123.5 -75t200.5 -151q165 -129 242.5 -177t144.5 -66q62 -14 139.5 -3.5t139.5 42.5q122 65 149 196q4 20 4 129q2 109 6 117q1 2 6 7.5t7 8.5q31 28 69 10q20 -7 31 -30 q4 -7 6 -43q10 -158 -12 -299q-20 -118 -70 -189q-78 -118 -241 -161q-181 -46 -328 12q-66 26 -141 76.5t-234 173.5q-165 129 -242.5 177t-144.5 66q-62 14 -139 3.5t-139 -42.5q-123 -66 -150 -196q-4 -20 -4 -129q-2 -109 -6 -115q-10 -23 -34 -31.5t-46 0.5 q-24 12 -31 29q-6 11 -8 47z" />
<glyph unicode="&#xad;" horiz-adv-x="1843" d="M-1840 158.5q0 71.5 3 105.5q13 140 59 279q66 198 203 364q76 89 174 166q228 166 533 213q57 7 75 -2l13 -6l24 6q28 8 45 8q52 10 117 -4l31 -6l24 4q46 10 78 10t78 -10l25 -4l24 4q46 10 78 10t78 -10l24 -4l25 4q44 10 78 10t78 -10l24 -4l25 4q46 10 77.5 10 t77.5 -10l25 -4l25 4q46 10 77.5 10t77.5 -10l25 -4l31 6q75 14 149 -2l23 -4l28 6q74 12 176 -4q336 -49 580 -250q25 -21 66.5 -63t60.5 -66q136 -164 205 -366q42 -127 57 -285q3 -34 3 -105.5t-3 -105.5q-13 -140 -59 -279q-66 -198 -203 -364q-76 -89 -174 -166 q-228 -166 -531 -213q-59 -7 -77 2l-13 6l-24 -6q-89 -20 -162 -4l-31 6l-24 -4q-46 -11 -78 -11t-78 11l-25 4l-24 -4q-46 -11 -78 -11t-78 11l-24 4l-25 -4q-46 -11 -78 -11t-78 11l-24 4l-25 -4q-46 -11 -77.5 -11t-77.5 11l-25 4l-25 -4q-46 -11 -77.5 -11t-77.5 11 l-25 4l-31 -6q-75 -14 -149 2l-23 4l-28 -6q-75 -12 -174 4q-339 49 -580 250q-25 20 -67 62t-62 67q-136 164 -205 369q-42 125 -57 284q-3 32 -3 103.5zM-1715 153.5q0 -66.5 3 -92.5q24 -258 143 -452q99 -167 251.5 -277.5t348.5 -160.5q37 -11 39 -11q3 0 -8 15 q-55 61 -74 155q-9 69 2 140q34 207 258 577l27 45l-45 74q-116 188 -175 296t-95 202q-92 225 -45 370q16 45 30 68q2 3 4 6.5t3 5t1 2.5l-24 -8q-206 -75 -354 -223q-252 -249 -287 -637q-3 -28 -3 -94.5zM-967 844q19 -99 84 -231.5t209 -364.5q3 -4 7 -11 q12 -18 14.5 -20t8.5 7q2 3 3 5l4 9l-31 51q-111 189 -167.5 318t-71.5 231q-11 69 -2 141q12 68 51 127l12 16l-16 -8q-75 -43 -100 -107t-5 -163zM-891 -592q-3 -81 35 -137q24 -36 59 -57q9 -6 22 -13.5t22.5 -13t9.5 -4.5q0 2 -13 18q-35 53 -51 129q-9 69 2 140 q24 161 162 411q20 33 20 41q-6 11 -12 23q-3 5 -6.5 11t-5.5 9t-2 4q-3 1 -7.5 -5.5t-35.5 -59.5q-190 -325 -199 -496zM-788 901q9 -152 149 -409q13 -24 31 -56t31 -54t14 -22l16 25l15 25l-15 24q-131 244 -155 404q-11 73 -3 141q16 72 52 127q12 15 12 18 q-8 -4 -18 -10q-135 -72 -129 -213zM-686 -592q-3 -116 76 -180q51 -40 61 -37q4 0 4 2l-8 12q-37 57 -49 125q-9 69 2 140q15 104 74 237l10 23l-16 32l-17 31l-4 -8q-11 -16 -25 -49q-102 -200 -108 -328zM-583.5 897q5.5 -117 98.5 -307l24 -47q1 0 17 31.5t16 33.5 q0 1 -14 41q-45 111 -56 189q-4 25 -4 75q0 56 13 107q12 39 34 78l6 6l-6 4l-6 4q-15 -8 -47 -33q-81 -65 -75.5 -182zM-578 94q0 -1 2 -4t6 -10t7 -12l14 -23l4 8q9 12 8.5 16.5t-12.5 24.5l-14 23q-13 -19 -15 -23zM-489 238l14 -23l14 -25q9 11 15 25l14 23l-14 24 l-15 23q-8 -11 -14 -23zM-475 -78q-1 -1 13 -27t16 -26q4 6 8 14l8 15l-14 24l-17 25q-2 0 -8 -11t-6 -14zM-461 -702q7 -18 12 -23l5 -4l6 12q54 83 4 252q-9 31 -11 32q-2 0 -8 -20q-52 -159 -8 -249zM-387 70l14 -25l15 -22q8 10 14 22l14 25l-14 22l-14 25 q-9 -11 -15 -25zM-387 412q0 -3 13.5 -27.5t15.5 -24.5t15 24.5t13 27.5q-6 12 -12 26l-16 27q-1 0 -15 -25.5t-14 -27.5zM-377 -270l10 -25q16 -32 17 -35l6 -14q3 -3 16 35q2 7 2 8q-6 17 -16 33l-16 32q-5 -8 -11 -16zM-375 856q15 -68 17 -68q1 0 16 68q2 12 2 57 q0 52 -12 84l-6 13q-1 0 -4 -6t-6 -16t-5 -19q-11 -45 -2 -113zM-289 608q0 -2 16 -33.5t17 -31.5t17 31.5t16 33.5q0 4 -15 41q-16 32 -16 41q0 2 -2 2t-2 -2q0 -6 -14 -41q-17 -34 -17 -41zM-287 -102l13 -25q18 -29 20 -29q10 20 16 29l13 25l-15 24l-16 25l-16 -25z M-285 238l15 -23l14 -25q8 11 14 25l15 23l-15 24l-14 23q-8 -11 -14 -23zM-272 -547q-9 -71 2 -112q2 -11 5 -21t5.5 -16t3.5 -6t3.5 6t5.5 16t5 21q4 14 4 55q0 48 -12 100l-6 23zM-268 1104l6 -8l6 -9q4 5 6 9l6 8l-6 4l-6 4q-4 -2 -6 -4zM-186 -301q0 -9 16 -41 q14 -35 14 -41q0 -2 2 -2t2 2q0 7 17 41q14 35 14 41q0 7 -16 33l-17 32q-1 0 -16.5 -31.5t-15.5 -33.5zM-182 70l14 -25l14 -22q9 10 15 22l14 25l-14 22l-15 25q-8 -11 -14 -25zM-182 412q0 -3 13 -27.5t15 -24.5t15.5 24.5t13.5 27.5q-6 12 -12 26l-17 27 q-1 0 -14.5 -25.5t-13.5 -27.5zM-170 856q15 -68 16 -68q2 0 17 68q2 12 2 57q0 52 -12 84l-7 13q-6 0 -14 -41q-11 -45 -2 -113zM-166 -797l6 -4q7 -4 13 0l6 4l-6 9l-7 8q-4 -4 -6 -8zM-84 608q0 -2 16 -33.5t17 -31.5t17 31.5t16 33.5q0 4 -15 41q-16 32 -16 41q0 2 -2 2 t-2 -2q0 -4 -15 -41q-16 -32 -16 -41zM-82 -102l12 -25q16 -31 19 -31q1 0 2 2q10 20 16 29l13 25l-15 24l-16 25l-17 -25zM-80 238l14 -23l15 -25q8 11 14 25l14 23l-14 24l-14 23q-9 -11 -15 -23zM-68 -547q-9 -71 2 -112q2 -11 5 -21.5t6 -16t4 -5.5t3.5 6t5.5 16t5 21 q4 14 4 55q0 48 -12 100l-6 23q-1 0 -17 -66zM-63 1104l6 -8l6 -9q4 5 6 9l6 8l-6 4l-6 4q-4 -2 -6 -4zM18 -301q0 -7 17 -41q14 -35 14 -41q0 -2 2 -2t2 2q0 7 17 41q14 35 14 41q0 7 -16 33l-17 32q-1 0 -17 -31.5t-16 -33.5zM23 70l14 -25l14 -22q9 10 15 22l14 25 l-14 22l-15 25q-8 -11 -14 -25zM23 412q0 -3 13 -27.5t15 -24.5t15.5 24.5t13.5 27.5q-6 12 -12 26l-17 27q-1 0 -14.5 -25.5t-13.5 -27.5zM35 856q15 -68 16 -68q2 0 17 68q2 12 2 57q0 49 -13 84l-6 13q-6 0 -14 -41q-11 -45 -2 -113zM39 -797l6 -4q6 -4 12 0l6 4l-6 9 l-6 8q-4 -4 -6 -8zM121 608q0 -2 16 -33.5t17 -31.5t16.5 31.5t15.5 33.5q0 6 -14 41q-16 32 -16 41q0 2 -2 2t-2 -2q0 -4 -15 -41q-16 -32 -16 -41zM123 -102l12 -25q16 -31 19 -31q1 0 2 2q10 20 16 29l12 25l-14 24l-16 25l-17 -25zM125 238l14 -23l15 -25q8 11 14 25 l14 23l-14 24l-14 23q-9 -11 -15 -23zM137 -547q-9 -71 2 -112q2 -11 5 -21.5t6 -16t4 -5.5t3.5 6t5.5 16t5 21q4 14 4 55q0 48 -12 100l-6 23q-1 0 -17 -66zM141 1104l6 -8l7 -9q4 5 6 9l6 8l-6 4l-6 4q-5 -2 -7 -4zM223 -301q0 -7 17 -41q14 -35 14 -41q0 -2 2 -2t2 2 q0 9 16 41q15 38 15 41q0 6 -17 33l-16 32q-1 0 -17 -31.5t-16 -33.5zM227 70l15 -25l14 -22q8 10 14 22l15 25l-15 22l-14 25q-8 -11 -14 -25zM227 412q0 -3 13.5 -27.5t15.5 -24.5t15.5 24.5t13.5 27.5q-7 12 -13 26l-16 27q-1 0 -15 -25.5t-14 -27.5zM240 856 q15 -68 16 -68t16 68q2 12 2 57q0 52 -12 84l-6 13q-6 0 -14 -41q-11 -45 -2 -113zM244 -797l6 -4q6 -4 12 0l6 4l-6 9l-6 8q-4 -4 -6 -8zM326 608q0 -2 15.5 -33.5t16.5 -31.5q5 8 11 16l8 19l-10 24q-15 31 -17 37l-6 12q-3 3 -16 -35q-2 -7 -2 -8zM328 -102l12 -25 q6 -9 16 -29q2 -5 11 10q4 7 10 19l12 25l-14 24l-17 25l-16 -25zM330 238l14 -23l14 -25q9 11 15 25l14 23l-14 24l-15 23q-8 -11 -14 -23zM342 -547q-9 -71 2 -112q2 -11 5 -21t5.5 -16t3.5 -6t4 5.5t6 16t5 21.5q4 14 4 55q0 48 -12 100l-7 23zM428 -301q0 -1 14 -41 q45 -111 56 -188q4 -25 4 -74q0 -59 -13 -107q-10 -38 -34 -80l-6 -6l12 -8l16 10q113 70 107 203q-6 118 -99 309l-24 47q-1 0 -17 -31.5t-16 -33.5zM430 410l14 -25l17 -25q2 0 8 11t6 14q-6 13 -12 27l-17 26q-4 -6 -8 -14zM432 70l14 -25l15 -22q8 10 14 22l14 25 l-14 22l-14 25q-9 -11 -15 -25zM434 774q0 -1 1 -3q8 -29 10 -30t3 4q1 3 4 10q1 3 1 5q52 159 8 252q-8 16 -12 20l-5 4l-6 -12q-54 -84 -4 -250zM516 578l16 -33q16 -27 19 -27q5 7 61 123q111 250 56 369q-26 54 -76 84q-38 24 -43 22q-4 0 -4 -2l8 -12q37 -57 49 -123 q9 -72 -2 -141q-15 -105 -74 -234zM532 -102l15 -25q131 -245 155 -403q11 -74 3 -140q-16 -74 -52 -129q-12 -15 -12 -18q8 4 18 8q70 39 101 91t28 126q-4 88 -51 205t-145 289l-29 45l-16 -25zM536.5 237.5q0.5 -4.5 12.5 -24.5l14 -23q13 19 15 23q0 1 -15 27l-14 22 l-4 -8q-9 -12 -8.5 -16.5zM623 387q0 -8 26 -47l2 -4l8 12q125 206 181 346q81 209 32 316q-26 55 -75 84q-9 6 -22 13.5t-22.5 12.5t-9.5 4q0 -2 13 -18q34 -52 51 -127q9 -72 -2 -141q-24 -163 -162 -412zM637 68q5 0 27 -45q214 -354 243 -553q11 -71 2 -140 q-12 -69 -51 -129l-12 -16l10 4q28 14 54 37.5t38 46.5q78 126 -63 418q-52 106 -189 332l-43 69q-1 1 -5 -4t-7.5 -11.5t-3.5 -8.5zM725 215l45 -74q117 -189 175.5 -296.5t94.5 -200.5q92 -226 45 -371q-16 -45 -30 -68q-8 -12 -8 -14l24 8q206 75 354 223 q252 249 287 639q3 26 3 92.5t-3 94.5q-24 256 -143 450q-99 167 -251.5 278t-348.5 161q-33 10 -39 10q-1 0 1 -3.5t7 -10.5q54 -60 74 -154q9 -72 -2 -141q-34 -208 -258 -578z" />
<glyph unicode="&#x2000;" horiz-adv-x="1146" />
<glyph unicode="&#x2001;" horiz-adv-x="2292" />
<glyph unicode="&#x2002;" horiz-adv-x="1146" />
<glyph unicode="&#x2003;" horiz-adv-x="2292" />
<glyph unicode="&#x2004;" horiz-adv-x="764" />
<glyph unicode="&#x2005;" horiz-adv-x="573" />
<glyph unicode="&#x2006;" horiz-adv-x="382" />
<glyph unicode="&#x2007;" horiz-adv-x="382" />
<glyph unicode="&#x2008;" horiz-adv-x="286" />
<glyph unicode="&#x2009;" horiz-adv-x="458" />
<glyph unicode="&#x200a;" horiz-adv-x="127" />
<glyph unicode="&#x2010;" d="M125 2q0 20 12.5 36.5t32.5 22.5h5l937 2h936l10 -6q34 -19 34 -56t-34 -56l-10 -4h-1878l-12 4q-33 20 -33 57z" />
<glyph unicode="&#x2011;" d="M125 2q0 20 12.5 36.5t32.5 22.5h5l937 2h936l10 -6q34 -19 34 -56t-34 -56l-10 -4h-1878l-12 4q-33 20 -33 57z" />
<glyph unicode="&#x2012;" d="M125 2q0 20 12.5 36.5t32.5 22.5h5l937 2h936l10 -6q34 -19 34 -56t-34 -56l-10 -4h-1878l-12 4q-33 20 -33 57z" />
<glyph unicode="&#x2013;" horiz-adv-x="1266" d="M125 2q0 20 6.5 36.5t16.5 22.5h3l488 2h487l5 -6q18 -19 18 -56t-18 -56l-5 -4h-978l-6 4q-17 20 -17 57z" />
<glyph unicode="&#x2014;" horiz-adv-x="2290" d="M125 2q0 20 13 36.5t34 22.5h5l976 2h974l11 -6q35 -19 35 -56t-35 -56l-11 -4h-1955l-13 4q-34 20 -34 57z" />
<glyph unicode="&#x2018;" horiz-adv-x="1843" d="M-181 412.5q0 39.5 3 58.5q30 166 168 258q20 15 52.5 30.5t49.5 18.5t39 -6q33 -16 33 -55q0 -44 -45 -60q-59 -23 -101 -66.5t-61 -98.5q-6 -12 -6 -21l-2 -6l10 4q28 6 70 2q66 -13 104 -68q14 -19 27 -51q4 -16 4 -45q0 -39 -14 -71q-19 -40 -55 -66t-77 -29 q-73 -4 -126 53t-70 160q-3 19 -3 58.5zM-33 301q13 -25 27 -31q15 -8 29.5 1.5t17.5 29.5q0 25 -21 39q-12 9 -28 6.5t-25 -14.5q-10 -13 0 -31z" />
<glyph unicode="&#x2019;" horiz-adv-x="1843" d="M-61 311l2 219l4 11q16 26 45 32q19 5 38.5 -4.5t28.5 -27.5l6 -11v-219q0 -219 -4 -229q-10 -26 -30 -35q-26 -12 -51.5 -1.5t-34.5 36.5q-4 10 -4 229z" />
<glyph unicode="&#x202f;" horiz-adv-x="458" />
<glyph unicode="&#x205f;" horiz-adv-x="573" />
<glyph unicode="&#xe000;" horiz-adv-x="81" d="M0 0v82h82v-82h-82z" />
</font>
</defs>
</svg>
